<?xml version="1.0" standalone="no"?>
<!DOCTYPE svg PUBLIC "-//W3C//DTD SVG 1.1//EN" "http://www.w3.org/Graphics/SVG/1.1/DTD/svg11.dtd" >
<svg xmlns="http://www.w3.org/2000/svg">
<metadata>
This is a custom SVG webfont generated by Font Squirrel.
Copyright   : Copyright 2010 Canonical Ltd  Licensed under the Ubuntu Font Licence 10
Designer    : Dalton Maag Ltd
Foundry     : Dalton Maag Ltd
Foundry URL : httpwwwdaltonmaagcom
</metadata>
<defs>
<font id="webfontdDcOFFqi" horiz-adv-x="1163" >
<font-face units-per-em="2048" ascent="1638" descent="-410" />
<missing-glyph horiz-adv-x="481" />
<glyph unicode=" "  horiz-adv-x="481" />
<glyph unicode="&#x09;" horiz-adv-x="481" />
<glyph unicode="&#xa0;" horiz-adv-x="481" />
<glyph unicode="!" horiz-adv-x="573" d="M389 1034q0 -172 -12 -312t-31 -280h-119q-18 139 -30.5 279.5t-12.5 312.5v385h205v-385zM424 111q0 -55 -37 -96.5t-100 -41.5t-100 41t-37 97q0 55 36.5 96t100.5 41q63 0 100 -41t37 -96z" />
<glyph unicode="&#x22;" horiz-adv-x="864" d="M350 1556v-102q0 -100 -12 -209.5t-31 -218.5h-112q-18 109 -30.5 218.5t-12.5 211.5v100h198zM712 1556v-102q0 -100 -12 -209.5t-31 -218.5h-112q-18 109 -30.5 218.5t-12.5 211.5v100h198z" />
<glyph unicode="#" horiz-adv-x="1374" d="M586 1044h332l71 375h172l-71 -375h180v-151h-211l-70 -367h281v-151h-309l-72 -375h-172l71 375h-331l-72 -375h-172l72 375h-181v151h209l70 367h-279v151h310l71 375h172zM485 526h332l72 367h-332z" />
<glyph unicode="$" d="M541 195q158 0 221 50t63 128q0 57 -27.5 98t-73.5 71.5t-106.5 55.5t-123.5 47q-61 23 -122 50.5t-108 67.5t-76.5 96t-29.5 138q0 145 87 238.5t253 118.5v235h170v-229q90 -4 167.5 -22.5t122.5 -34.5l-38 -160q-49 18 -123 37.5t-185 19.5q-123 0 -189.5 -47 t-66.5 -133q0 -47 19.5 -80t56.5 -58.5t87 -46t112 -42.5q80 -31 151.5 -64t126 -79t87 -109.5t32.5 -153.5q0 -145 -88 -234.5t-272 -111.5v-264h-170v258q-143 4 -233.5 31.5t-135.5 52.5l51 153q61 -29 147.5 -53t213.5 -24z" />
<glyph unicode="%" horiz-adv-x="1765" d="M106 1073q0 92 25 162t69 118t103 72.5t129 24.5t129.5 -24.5t103.5 -72.5t68.5 -118t24.5 -162t-24.5 -161.5t-68.5 -118t-103.5 -73t-129.5 -24.5t-129 24.5t-103 73t-69 118t-25 161.5zM598 1073q0 111 -43 173.5t-123 62.5t-123 -62.5t-43 -173.5t43 -173t123 -62 t123 62t43 173zM1008 346q0 92 24.5 162t68.5 118t103.5 72.5t128.5 24.5q70 0 129.5 -24.5t103.5 -72.5t68.5 -118t24.5 -162t-24.5 -161.5t-68.5 -118t-103.5 -73t-129.5 -24.5t-129 24.5t-103 73t-68.5 118t-24.5 161.5zM1499 346q0 111 -43 173.5t-123 62.5t-123 -62.5 t-43 -173.5t43 -173t123 -62t123 62t43 173zM1376 1419l-801 -1419h-186l801 1419h186z" />
<glyph unicode="&#x26;" horiz-adv-x="1372" d="M98 377q0 80 24.5 142.5t66.5 112.5t97.5 88t114.5 66q-152 152 -151 314q0 82 27.5 147.5t75.5 110.5t115 69.5t146 24.5q82 0 146.5 -24.5t108.5 -65.5t66.5 -98.5t22.5 -120.5q0 -72 -23.5 -129.5t-63.5 -104.5t-91 -86t-108 -69l332 -338q70 129 90 286l157 -20 q-8 -84 -41.5 -183.5t-95.5 -197.5q72 -78 132.5 -153.5t99.5 -147.5h-201q-25 41 -61 84l-74 86q-84 -84 -194.5 -136t-254.5 -52q-133 0 -221 37.5t-142.5 96t-77 128.5t-22.5 133zM289 381q0 -37 14 -80t47 -79t85 -59.5t130 -23.5q100 0 185.5 37t150.5 105l-399 403 q-37 -18 -75 -43t-68.5 -60.5t-50 -84.5t-19.5 -115zM786 1137q0 70 -46 118t-126 48q-90 0 -138 -54.5t-48 -134.5q0 -133 139 -260q45 23 85 49.5t70 61t47 77t17 95.5z" />
<glyph unicode="'" horiz-adv-x="501" d="M350 1556v-102q0 -100 -12 -209.5t-31 -218.5h-112q-18 109 -30.5 218.5t-12.5 211.5v100h198z" />
<glyph unicode="(" horiz-adv-x="671" d="M354 612q0 -262 76 -485t223 -414l-135 -92q-160 195 -257 448t-97 543q0 291 97 544t257 448l135 -93q-147 -190 -223 -413.5t-76 -485.5z" />
<glyph unicode=")" horiz-adv-x="671" d="M317 612q0 262 -75.5 485.5t-223.5 413.5l136 93q160 -195 257 -448t97 -544t-97.5 -543.5t-256.5 -447.5l-136 92q147 190 223 413.5t76 485.5z" />
<glyph unicode="*" horiz-adv-x="991" d="M588 1403q0 -86 -16 -165l-31 -163l145 80q72 39 156 68l12 4l57 -172l-16 -6q-82 -31 -164 -40.5t-168 -15.5l127 -111q59 -54 111 -126l10 -15l-149 -104l-9 12q-49 74 -85 147l-72 150l-73 -150q-36 -73 -85 -147l-8 -12l-150 104l10 15q51 72 111 126l127 111 q-86 6 -168 15.5t-164 40.5l-16 6l57 172l13 -4q84 -29 155 -68l146 -80l-32 163q-15 79 -16 165v16h185v-16z" />
<glyph unicode="+" d="M113 694h387v422h164v-422h387v-162h-387v-423h-164v423h-387v162z" />
<glyph unicode="," horiz-adv-x="512" d="M369 233q2 -16 2 -31v-32q0 -129 -38 -255t-104 -241l-147 47q51 104 67.5 212t16.5 202q0 27 -1 51.5t-3 46.5h207z" />
<glyph unicode="-" horiz-adv-x="620" d="M57 702h506v-178h-506v178z" />
<glyph unicode="." horiz-adv-x="512" d="M393 111q0 -55 -37 -96.5t-100 -41.5t-100 41t-37 97q0 55 37 96t100 41t100 -41t37 -96z" />
<glyph unicode="/" horiz-adv-x="794" d="M150 -379h-195l694 1983h191z" />
<glyph unicode="0" d="M106 711q0 356 126 548.5t350 192.5q223 0 349 -192.5t126 -548.5t-126 -549t-349 -193t-349.5 193t-126.5 549zM856 711q0 117 -13.5 221t-45 182t-85 124t-130.5 46q-78 0 -131.5 -46t-85 -124t-45 -182.5t-13.5 -220.5q0 -117 13.5 -221.5t45 -182.5t85 -124 t131.5 -46t131 46t84.5 124t45 182.5t13.5 221.5z" />
<glyph unicode="1" d="M195 1126q117 45 227 116t203 177h135v-1419h-191v1155q-25 -23 -60.5 -47.5t-77.5 -47t-88 -43t-89 -34.5z" />
<glyph unicode="2" d="M961 1057q0 -74 -30 -142.5t-79 -135t-111 -131.5l-123 -126l-80 -82q-46 -47 -87 -98t-69 -98t-28 -82h654v-162h-861q-2 12 -2 25v22q0 96 32 179t83 157t115 139l125 127l97 97q46 48 82 96.5t57.5 99.5t21.5 109q0 61 -19.5 104t-52.5 71.5t-77 42t-93 13.5 q-59 0 -108.5 -16.5t-88 -38t-65.5 -44.5l-41 -36l-94 135q18 20 55 50t88 56.5t114.5 45t137.5 18.5q223 0 335 -103.5t112 -291.5z" />
<glyph unicode="3" d="M467 139q182 0 261 72t79 192q0 78 -33 131.5t-86 85t-123.5 45t-144.5 13.5h-49v156h67q51 0 105.5 10t99.5 36.5t73.5 72.5t28.5 116q0 57 -20 98t-54 68t-78 38t-93 11q-98 0 -167 -28.5t-116 -59.5l-74 145q25 16 63 36t85 36.5t101 27.5t114 11q113 0 194.5 -27.5 t135 -78t80 -119t26.5 -148.5q0 -111 -63.5 -189.5t-153.5 -119.5q55 -16 106.5 -47t89 -78t61.5 -108.5t24 -137.5q0 -92 -32 -170.5t-98.5 -136t-167 -90.5t-237.5 -33q-53 0 -109.5 8.5t-105.5 20.5t-86 24.5t-53 20.5l37 166q35 -16 115.5 -43t197.5 -27z" />
<glyph unicode="4" d="M86 492q39 90 106.5 209.5t152.5 246.5t182.5 250t195.5 221h182v-901h168v-156h-168v-362h-184v362h-635v130zM721 1194q-61 -66 -123.5 -146.5t-122 -168.5t-112 -180.5t-93.5 -180.5h451v676z" />
<glyph unicode="5" d="M412 872q309 -12 453.5 -135t144.5 -334q0 -94 -32 -173.5t-96.5 -137t-162.5 -90.5t-234 -33q-53 0 -108 8.5t-102.5 20.5t-84 24.5t-53.5 20.5l37 166q35 -16 114 -43t193 -27q92 0 154.5 20.5t101.5 55.5t56.5 81t17.5 97q0 78 -26.5 138.5t-94 101.5t-180.5 62.5 t-285 21.5q12 100 19.5 188t13.5 172t10 167t8 175h685v-162h-519q-2 -31 -6 -82l-8 -109l-8 -110q-4 -53 -8 -84z" />
<glyph unicode="6" d="M133 569q0 207 57.5 366t163 267.5t256 164.5t338.5 58l15 -159q-121 -2 -220.5 -27t-177.5 -78t-131 -138t-80 -210q53 25 120 41t138 16q121 0 205 -36.5t137.5 -97t77 -139.5t23.5 -165q0 -78 -27 -160t-81 -149.5t-138 -110.5t-199 -43q-233 0 -355 159.5t-122 440.5 zM592 715q-72 0 -133.5 -13.5t-122.5 -39.5q-2 -23 -3 -46.5t-1 -46.5q0 -90 12 -170t44 -140t85 -96t135 -36q68 0 115 28.5t77.5 73.5t44 97.5t13.5 101.5q0 139 -66.5 213t-199.5 74z" />
<glyph unicode="7" d="M338 0q12 164 58 345t114 352t148.5 317.5t158.5 238.5h-690v166h903v-157q-68 -78 -149.5 -214.5t-154.5 -305.5t-125 -360.5t-64 -381.5h-199z" />
<glyph unicode="8" d="M1047 369q0 -86 -30 -159t-88.5 -127t-146.5 -84t-202 -30q-133 0 -222.5 38t-142.5 95.5t-75.5 126t-22.5 129.5q0 59 19.5 113.5t51 102t73.5 85t89 66.5q-201 115 -200 338q0 78 30.5 148.5t87 124t136 85t178.5 31.5q115 0 196.5 -35t134 -89t76 -119.5t23.5 -127.5 q0 -59 -17.5 -111t-47 -97.5t-67.5 -80t-79 -61.5q242 -114 246 -362zM309 356q0 -37 13.5 -76.5t46 -73.5t84 -56.5t129.5 -22.5q70 0 122 20.5t84.5 52t49 72.5t16.5 84q0 66 -24.5 115t-70.5 86t-110.5 62.5t-146.5 44.5q-92 -51 -142.5 -127.5t-50.5 -180.5zM821 1083 q0 31 -13 68t-42 68.5t-74 53t-110 21.5q-66 0 -112 -20.5t-74.5 -52t-42 -69.5t-13.5 -75q0 -45 16.5 -90t51 -84t91 -69.5t134.5 -49.5q86 51 137 119.5t51 179.5z" />
<glyph unicode="9" d="M1030 852q0 -422 -210 -638t-623 -218l-7 160q129 0 232.5 24.5t181.5 78.5t130 140t77 211q-53 -25 -120.5 -40t-139.5 -15q-121 0 -205 36t-137 96.5t-76.5 139t-23.5 164.5q0 76 26.5 158t80.5 149.5t138 110.5t199 43q117 0 206 -41t149.5 -119t91 -189.5 t30.5 -250.5zM571 711q72 0 135.5 13t122.5 40q2 23 2 44v44q0 88 -12 169t-44 141.5t-85 96t-135 35.5q-68 0 -115 -28.5t-77.5 -72.5t-44 -96.5t-13.5 -101.5q0 -139 66.5 -211.5t199.5 -72.5z" />
<glyph unicode=":" horiz-adv-x="512" d="M393 111q0 -55 -37 -96.5t-100 -41.5t-100 41t-37 97q0 55 37 96t100 41t100 -41t37 -96zM393 928q0 -55 -37 -96.5t-100 -41.5t-100 41t-37 97q0 55 37 96t100 41t100 -41t37 -96z" />
<glyph unicode=";" horiz-adv-x="512" d="M369 233q2 -16 2 -31v-32q0 -129 -38 -255t-104 -241l-147 47q51 104 67.5 212t16.5 202q0 27 -1 51.5t-3 46.5h207zM393 928q0 -55 -37 -96.5t-100 -41.5t-100 41t-37 97q0 55 37 96t100 41t100 -41t37 -96z" />
<glyph unicode="&#x3c;" d="M324 612l727 -299l-54 -157l-884 374v164l884 375l54 -158z" />
<glyph unicode="=" d="M113 475h938v-162h-938v162zM113 911h938v-161h-938v161z" />
<glyph unicode="&#x3e;" d="M113 911l53 158l885 -375v-164l-885 -374l-53 157l727 299z" />
<glyph unicode="?" horiz-adv-x="835" d="M360 1292q-135 0 -264 -69l-53 147q70 37 157 59.5t185 22.5q117 0 191.5 -31.5t119.5 -81t62.5 -110t17.5 -115.5q0 -70 -26.5 -124t-65.5 -101t-86 -90t-86 -89t-65.5 -100.5t-26.5 -122.5v-22q0 -12 2 -23h-160q-8 41 -8 86q0 66 23.5 119t60.5 99.5t78 86t77.5 80.5 t60.5 86t24 99q0 86 -56 140t-162 54zM489 111q0 -55 -36.5 -96.5t-100.5 -41.5q-63 0 -100 41t-37 97q0 55 37 96t100 41t100 -41t37 -96z" />
<glyph unicode="@" horiz-adv-x="1953" d="M1417 88q-66 0 -108.5 18.5t-71.5 49.5q-45 -25 -108.5 -42.5t-127.5 -17.5q-98 0 -179 31t-140 91.5t-92 148.5t-33 204q0 98 30.5 185.5t91 152t147.5 101.5t198 37q104 0 191.5 -16.5t134.5 -33.5v-626q0 -66 22.5 -92.5t59.5 -26.5q53 0 93 37t65.5 96t37.5 134 t12 153q0 129 -45 242.5t-129 199.5t-203.5 135t-269.5 49t-274.5 -50t-214.5 -143t-140.5 -228.5t-50.5 -307.5q0 -180 53.5 -316t148.5 -227.5t225 -137.5t286 -46q121 0 200 14.5t101 22.5l21 -151q-35 -12 -126.5 -26.5t-195.5 -14.5q-182 0 -344 52t-282.5 159.5 t-191.5 274.5t-71 396q0 221 69.5 387t187.5 275.5t272.5 165t326.5 55.5q168 0 317.5 -54.5t262.5 -157.5t178.5 -249.5t65.5 -331.5q0 -139 -32 -245.5t-85 -179t-127 -109.5t-156 -37zM1008 254q43 0 87 9t79 28q-6 27 -8.5 53.5t-2.5 50.5v482q-12 4 -47 8t-78 4 q-145 0 -216.5 -90t-71.5 -228q0 -145 69.5 -231t188.5 -86z" />
<glyph unicode="A" horiz-adv-x="1366" d="M1128 0l-65 181l-64 181h-643l-129 -362h-207l154 417l140 363l137 329q68 157 141 310h182q74 -154 141 -310l137 -329l140 -363l154 -417h-218zM942 526l-130 345q-65 167 -134 321q-72 -154 -136 -321l-128 -345h528z" />
<glyph unicode="B" horiz-adv-x="1325" d="M563 -12q-43 0 -93 2t-100.5 6t-99.5 10t-90 17v1376q41 10 90 16t99.5 10.5t99.5 6.5t92 2q123 0 230.5 -18.5t186.5 -62.5t124 -116t45 -176q0 -117 -55.5 -191.5t-147.5 -111.5q125 -37 199 -117t74 -225q0 -213 -157 -320.5t-497 -107.5zM377 662v-500q23 -2 53 -4 q27 -2 62.5 -3t82.5 -1q88 0 167 11t138.5 39.5t95.5 80t36 129.5q0 70 -27 118t-77 76.5t-119.5 41t-155.5 12.5h-256zM377 821h209q74 0 139.5 10.5t113.5 37t75.5 69.5t27.5 109q0 61 -28.5 103t-79 67.5t-118 38t-143.5 12.5t-118.5 -2t-77.5 -6v-439z" />
<glyph unicode="C" horiz-adv-x="1277" d="M791 -31q-150 0 -273 49.5t-211 143.5t-136 232t-48 317q0 178 54 316t146.5 232.5t215.5 143.5t262 49q88 0 158.5 -12.5t123 -28.5t85 -32.5t44.5 -24.5l-57 -164q-18 12 -53 26.5t-79 29t-96.5 23.5t-105.5 9q-113 0 -203 -39t-153.5 -112.5t-97 -179t-33.5 -236.5 q0 -127 29.5 -231.5t89 -179.5t148.5 -116t208 -41q137 0 227 29t135 51l52 -164q-14 -10 -51 -25.5t-92.5 -29.5t-129 -24.5t-159.5 -10.5z" />
<glyph unicode="D" horiz-adv-x="1468" d="M1346 711q0 -184 -57.5 -320.5t-162 -225.5t-250 -133t-319.5 -44q-86 0 -189.5 7t-187.5 28v1376q84 20 187.5 27.5t189.5 7.5q174 0 319.5 -44t250 -133.5t162 -225.5t57.5 -320zM573 162q283 0 422.5 144.5t139.5 404.5t-139.5 404.5t-422.5 144.5q-84 0 -130 -2.5 t-64 -4.5v-1085q18 -2 64 -4t130 -2z" />
<glyph unicode="E" horiz-adv-x="1177" d="M180 0v1419h867v-170h-668v-422h594v-165h-594v-492h719v-170h-918z" />
<glyph unicode="F" horiz-adv-x="1107" d="M180 0v1419h856v-170h-657v-428h584v-168h-584v-653h-199z" />
<glyph unicode="G" horiz-adv-x="1384" d="M1047 698h198v-663q-25 -8 -71 -18.5t-106 -20.5t-132 -17.5t-145 -7.5q-150 0 -273 49.5t-211 143.5t-136 231t-48 316q0 178 54 316t146.5 232.5t216.5 143.5t265 49q96 0 171 -12.5t128 -28.5t87 -32.5t46 -24.5l-63 -166q-59 39 -157.5 64.5t-201.5 25.5 q-109 0 -198 -39t-151.5 -112.5t-97 -179t-34.5 -236.5q0 -127 29.5 -231.5t90 -179.5t149.5 -116t210 -41q86 0 146.5 9.5t87.5 17.5v528z" />
<glyph unicode="H" horiz-adv-x="1452" d="M1073 1419h199v-1419h-199v655h-694v-655h-199v1419h199v-592h694v592z" />
<glyph unicode="I" horiz-adv-x="559" d="M180 1419h199v-1419h-199v1419z" />
<glyph unicode="J" horiz-adv-x="1032" d="M862 457q0 -102 -21.5 -190.5t-75.5 -155t-145.5 -104.5t-228.5 -38q-70 0 -128 11.5t-105 29t-82 37t-56 37.5l78 158q43 -31 112 -65t171 -34q147 0 215 75t68 257v944h198v-962z" />
<glyph unicode="K" horiz-adv-x="1296" d="M1231 1419l-144 -154l-166 -174l-173 -176l-162 -159q88 -61 186 -151.5t192.5 -193t177.5 -209t138 -202.5h-233q-61 96 -141.5 193.5t-169.5 186.5t-180 165t-177 129v-674h-199v1419h199v-626l158 152l170 171l158 165q75 79 126 138h240z" />
<glyph unicode="L" horiz-adv-x="1071" d="M1034 172v-172h-854v1419h199v-1247h655z" />
<glyph unicode="M" horiz-adv-x="1792" d="M817 197l-54 125l-73 163l-83 182l-83 176l-72.5 148.5t-54.5 100.5q-23 -242 -37 -523.5t-24 -568.5h-195q8 184 18.5 371.5t24 369t28.5 353.5t34 325h174q55 -90 119 -213l127 -257l122 -268l109 -245l109 245l122 268l127 257q63 123 119 213h174q70 -686 105 -1419 h-195q-10 287 -24.5 568.5t-36.5 523.5q-20 -35 -54 -100.5t-73 -148.5l-83 -176l-83 -182l-73 -163l-54 -125h-160z" />
<glyph unicode="N" horiz-adv-x="1499" d="M1153 0l-103 170l-126 196l-141 205l-144 202l-139 183l-125 152v-1108h-195v1419h158q96 -102 206 -238l217 -281l203 -284q95 -139 160 -247v1050h195v-1419h-166z" />
<glyph unicode="O" horiz-adv-x="1601" d="M123 711q0 182 54 321t147.5 232.5t217.5 140.5t263 47q137 0 259 -47t214 -140.5t146.5 -232.5t54.5 -321t-54.5 -321.5t-146.5 -233t-214 -140.5t-259 -47q-139 0 -263 47t-217.5 140.5t-147.5 233t-54 321.5zM332 711q0 -129 32.5 -234.5t93 -179.5t147.5 -114 t196 -40t194.5 40t146 114t93.5 179.5t33 234.5t-33 234.5t-93.5 179t-146.5 113.5t-194 40q-109 0 -196 -40t-147.5 -113.5t-93 -179t-32.5 -234.5z" />
<glyph unicode="P" horiz-adv-x="1253" d="M557 1434q299 0 460 -114t161 -339q0 -123 -44 -210t-127 -141.5t-202 -79t-268 -24.5h-158v-526h-199v1399q84 20 187.5 27.5t189.5 7.5zM573 1260q-127 0 -194 -7v-557h149q102 0 184.5 13.5t138.5 45t87 87t31 141.5q0 82 -32 135t-86 85t-126 44.5t-152 12.5z" />
<glyph unicode="Q" horiz-adv-x="1601" d="M123 711q0 182 54 321t147.5 232.5t217.5 140.5t263 47q137 0 259 -47t214 -140.5t146.5 -232.5t54.5 -321q0 -160 -41 -285t-114 -216t-170 -147.5t-208 -76.5q2 -47 42 -83t101.5 -60.5t137.5 -41t151 -24.5l-47 -156q-106 14 -203.5 38t-176.5 62.5t-132 99t-71 150.5 q-129 8 -244 60.5t-199 145.5t-133 226.5t-49 307.5zM332 711q0 -129 32.5 -234.5t93 -179.5t147.5 -114t196 -40t194.5 40t146 114t93.5 179.5t33 234.5t-33 234.5t-93.5 179t-146.5 113.5t-194 40q-109 0 -196 -40t-147.5 -113.5t-93 -179t-32.5 -234.5z" />
<glyph unicode="R" horiz-adv-x="1296" d="M874 594l83 -108q50 -67 103.5 -147.5t106 -168.5t88.5 -170h-217q-41 78 -89 158t-97 152.5t-97 135.5l-87 111q-27 -2 -55 -2h-56h-178v-555h-199v1399q84 20 187.5 27.5t189.5 7.5q299 0 455.5 -113t156.5 -336q0 -141 -75 -241.5t-220 -149.5zM573 1260 q-127 0 -194 -7v-534h141q102 0 184 10t138.5 39t87.5 81t31 138q0 80 -31 133.5t-83 84t-123 43t-151 12.5z" />
<glyph unicode="S" horiz-adv-x="1097" d="M510 141q311 0 311 213q0 66 -27.5 112t-74.5 80t-107.5 58.5t-128.5 48.5q-78 27 -147.5 61t-120.5 80t-81 109.5t-30 153.5q0 186 127 290.5t351 104.5q129 0 234.5 -27.5t154.5 -60.5l-64 -162q-43 27 -128 52.5t-197 25.5q-57 0 -106.5 -12.5t-86.5 -37t-58.5 -62.5 t-21.5 -89q0 -57 22.5 -96t63.5 -68.5t95.5 -54t119.5 -49.5q92 -37 169 -74t133.5 -88t87 -121.5t30.5 -171.5q0 -186 -136 -286.5t-384 -100.5q-84 0 -154.5 11.5t-126 27t-95.5 32.5t-62 30l59 163q47 -27 143.5 -59.5t235.5 -32.5z" />
<glyph unicode="T" horiz-adv-x="1165" d="M1128 1419v-172h-446v-1247h-199v1247h-446v172h1091z" />
<glyph unicode="U" horiz-adv-x="1417" d="M709 -31q-139 0 -241.5 43t-168.5 118t-97.5 177.5t-31.5 220.5v891h199v-868q0 -213 94 -309.5t246 -96.5q76 0 138 24t107 73t70 125.5t25 183.5v868h198v-891q0 -119 -31.5 -221t-98 -177t-168 -118t-240.5 -43z" />
<glyph unicode="V" horiz-adv-x="1351" d="M1327 1419l-148 -417l-139 -363l-134 -329l-136 -310h-186l-137 310l-135 329l-140 363q-72 191 -147 417h219l217 -622q106 -299 219 -561q113 260 219 560l215 623h213z" />
<glyph unicode="W" horiz-adv-x="1910" d="M956 963q-86 -274 -174 -508l-176 -455h-198q-109 313 -192 661.5t-155 757.5h209l60 -319l63 -310l66 -288q33 -137 67 -254l174 472q92 257 172 531h172q80 -274 175 -531l176 -472q33 115 65.5 252t64 287.5l62.5 311.5l60 320h202q-74 -410 -156.5 -758t-189.5 -661 h-198l-176.5 455t-172.5 508z" />
<glyph unicode="X" horiz-adv-x="1300" d="M1032 0q-31 61 -74 136t-94 156l-106 162l-107 152l-106 -152l-106 -162l-94 -156q-44 -75 -75 -136h-219q92 180 214 367l259 383l-454 669h229l350 -528l346 528h228l-447 -661l262 -387q123 -188 217 -371h-223z" />
<glyph unicode="Y" horiz-adv-x="1232" d="M518 0v569l-266 432l-236 418h234q78 -168 174 -341t199 -333q100 160 196 333t176 341h222l-236 -417l-264 -429v-573h-199z" />
<glyph unicode="Z" horiz-adv-x="1181" d="M1081 1262l-109 -128l-132 -166l-144 -193l-144 -205q-71 -103 -134.5 -205.5t-114.5 -194.5h799v-170h-1030v133q43 82 101 180l125 201l138 207l143 201l137 180l122 147h-729v170h972v-157z" />
<glyph unicode="[" horiz-adv-x="681" d="M201 1604h461v-150h-283v-1683h283v-150h-461v1983z" />
<glyph unicode="\" horiz-adv-x="794" d="M-45 1604h190l695 -1983h-195z" />
<glyph unicode="]" horiz-adv-x="681" d="M481 -379h-461v150h283v1683h-283v150h461v-1983z" />
<glyph unicode="^" d="M666 1419l397 -696l-152 -78l-329 578l-330 -578l-152 78l398 696h168z" />
<glyph unicode="_" horiz-adv-x="1015" d="M-4 -217h1024v-162h-1024v162z" />
<glyph unicode="`" horiz-adv-x="778" d="M252 1589l262 -315l-96 -86l-289 280z" />
<glyph unicode="a" horiz-adv-x="1077" d="M528 137q68 0 120 3t87 12v317q-20 10 -66 17.5t-112 7.5q-43 0 -91 -6.5t-88 -26t-66.5 -53t-26.5 -89.5q0 -102 65 -142t178 -40zM512 1092q115 0 193.5 -30t127 -84t69 -129t20.5 -165v-666l-69 -11q-44 -7 -99.5 -13t-120 -11.5t-127.5 -5.5q-90 0 -166 18.5 t-131 58.5t-86 105.5t-31 157.5q0 88 36 151.5t97.5 102.5t143.5 57.5t172 18.5q29 0 59.5 -3t57.5 -8l49 -9q20 -4 28 -6v53q0 47 -10 93t-36.5 82t-73 57.5t-119.5 21.5q-94 0 -165 -13.5t-106 -27.5l-22 157q37 16 123 32t186 16z" />
<glyph unicode="b" horiz-adv-x="1214" d="M358 1018q35 23 106 47.5t163 24.5q115 0 204 -41t150 -115t93 -176.5t32 -225.5q0 -129 -38 -232t-107.5 -175t-168 -111t-221.5 -39q-133 0 -235.5 18.5t-167.5 37.5v1525l190 33v-571zM358 166q29 -8 81.5 -15.5t129.5 -7.5q154 0 246 101.5t92 287.5q0 82 -16.5 154 t-53 124t-95 82t-140.5 30q-78 0 -143.5 -27t-100.5 -55v-674z" />
<glyph unicode="c" horiz-adv-x="960" d="M631 -25q-129 0 -226.5 41t-164 115t-99 175.5t-32.5 223.5q0 123 35.5 225.5t101 177.5t161 117t211.5 42q72 0 144 -12.5t137 -39.5l-43 -161q-43 20 -99.5 32.5t-119.5 12.5q-160 0 -245 -100.5t-85 -293.5q0 -86 19.5 -157.5t61.5 -122.5t107.5 -79t159.5 -28 q76 0 137.5 14.5t96.5 30.5l26 -159q-16 -10 -46.5 -19.5t-69.5 -16.5t-83 -12.5t-85 -5.5z" />
<glyph unicode="d" horiz-adv-x="1214" d="M856 840q-35 29 -100.5 55.5t-143.5 26.5q-82 0 -140 -30t-95 -82t-53.5 -124t-16.5 -154q0 -186 92.5 -287.5t245.5 -101.5q78 0 130 7.5t81 15.5v674zM856 1556l191 33v-1558q-66 -18 -168.5 -37t-235.5 -19q-123 0 -221 39t-168 111t-107.5 175t-37.5 232 q0 123 31.5 225.5t93 176.5t150.5 115t204 41q92 0 162.5 -25t105.5 -47v538z" />
<glyph unicode="e" horiz-adv-x="1153" d="M109 530q0 141 40.5 247t108.5 175.5t156 104.5t180 35q215 0 329.5 -134.5t114.5 -408.5v-32q0 -19 -2 -36h-729q12 -166 96 -252t263 -86q100 0 168.5 17.5t103.5 34.5l27 -160q-35 -18 -122 -39t-198 -21q-139 0 -240.5 42t-167 116t-97 175t-31.5 222zM840 635 q2 129 -64.5 212t-183.5 83q-66 0 -116 -25.5t-85 -66.5t-54.5 -94.5t-25.5 -108.5h529z" />
<glyph unicode="f" horiz-adv-x="798" d="M584 1589q84 0 144 -12t85 -23l-35 -163q-25 12 -69.5 23t-110.5 11q-133 0 -186.5 -72.5t-53.5 -195.5v-92h410v-160h-410v-905h-190v1161q0 205 100.5 316.5t315.5 111.5z" />
<glyph unicode="g" horiz-adv-x="1191" d="M836 106q-25 -16 -95.5 -41.5t-165.5 -25.5q-96 0 -181 30.5t-148.5 95t-100 161t-36.5 229.5q0 117 34.5 214t101 168t163 110.5t217.5 39.5q133 0 232 -19t167 -36v-950q0 -246 -127 -356.5t-385 -110.5q-100 0 -189.5 16.5t-154.5 38.5l35 166q57 -23 140 -40t173 -17 q170 0 245 67.5t75 214.5v45zM834 897q-29 8 -77 15.5t-130 7.5q-154 0 -237 -100.5t-83 -266.5q0 -92 23.5 -157.5t63.5 -108.5t92.5 -63.5t107.5 -20.5q76 0 139.5 21.5t100.5 49.5v623z" />
<glyph unicode="h" horiz-adv-x="1177" d="M168 0v1556l190 33v-545q53 20 113.5 31.5t120.5 11.5q127 0 211 -35.5t134 -100t70.5 -154.5t20.5 -199v-598h-190v557q0 98 -13.5 168t-44 113t-82 62.5t-127.5 19.5q-31 0 -63.5 -4.5t-62 -9.5t-53 -11t-34.5 -10v-885h-190z" />
<glyph unicode="i" horiz-adv-x="526" d="M358 0h-190v1065h190v-1065zM262 1257q-51 0 -87 34t-36 91t36 91t87 34t87 -33.5t36 -91.5q0 -57 -36 -91t-87 -34z" />
<glyph unicode="j" horiz-adv-x="526" d="M-6 -383q-25 0 -64 6t-65 17l24 155q20 -6 47 -10t50 -4q98 0 140 60.5t42 176.5v1047h190v-1045q0 -205 -93 -304t-271 -99zM262 1257q-51 0 -87 34t-36 91t36 91t87 34t87 -33.5t36 -91.5q0 -57 -36 -91t-87 -34z" />
<glyph unicode="k" horiz-adv-x="1077" d="M553 586q61 -47 130 -117t135.5 -150.5t126 -163.5t99.5 -155h-223q-43 72 -99 146.5t-117.5 143t-125 126t-121.5 96.5v-512h-190v1556l190 33v-971l109 109l117 121l108 118l88 99h224l-103 -113l-115 -124l-119 -125z" />
<glyph unicode="l" horiz-adv-x="567" d="M487 -20q-176 4 -249.5 75.5t-73.5 223.5v1277l190 33v-1280q0 -47 8.5 -77.5t27 -49t49 -28t75.5 -15.5z" />
<glyph unicode="m" horiz-adv-x="1771" d="M168 1034q66 16 173.5 34.5t248.5 18.5q102 0 171.5 -27.5t117.5 -80.5q14 10 44.5 28.5t75.5 36t100.5 30.5t119.5 13q123 0 200.5 -35.5t121.5 -101t59.5 -155.5t15.5 -197v-598h-191v557q0 94 -9 161.5t-34.5 113t-69.5 67t-114 21.5q-96 0 -158.5 -26t-85.5 -46 q16 -53 24.5 -116.5t8.5 -133.5v-598h-190v557q0 94 -10.5 161.5t-36 113t-69.5 67t-112 21.5q-29 0 -61.5 -2.5t-62 -5.5t-54 -7t-33.5 -6v-899h-190v1034z" />
<glyph unicode="n" horiz-adv-x="1183" d="M168 1034q66 16 174.5 34.5t249.5 18.5q127 0 211 -35.5t134 -100t70.5 -154.5t20.5 -199v-598h-190v557q0 98 -13.5 168t-44 113t-82 62.5t-127.5 19.5q-31 0 -63.5 -2.5t-62 -5.5t-53 -7l-34.5 -6v-899h-190v1034z" />
<glyph unicode="o" horiz-adv-x="1216" d="M1108 532q0 -127 -37 -229t-103.5 -176t-158.5 -114t-201 -40t-201 40t-158.5 114t-103 176.5t-36.5 228.5q0 125 36.5 228.5t103 177.5t159 114t200.5 40q109 0 201 -40t158.5 -114t103.5 -177.5t37 -228.5zM909 532q0 180 -80.5 286t-220.5 106q-139 0 -220 -105.5 t-81 -286.5q0 -180 81 -285.5t220 -105.5t220 105.5t81 285.5z" />
<glyph unicode="p" horiz-adv-x="1214" d="M907 530q0 186 -92 287t-246 101q-86 0 -134 -6.5t-77 -14.5v-672q35 -29 100.5 -55.5t143.5 -26.5q82 0 140.5 30t95 82t53 122.5t16.5 152.5zM1106 530q0 -121 -32 -223t-93 -176t-150.5 -115t-203.5 -41q-92 0 -163 25t-106 47v-426h-190v1411q68 16 169 35.5 t234 19.5q123 0 221.5 -38.5t168 -110.5t107.5 -175.5t38 -232.5z" />
<glyph unicode="q" horiz-adv-x="1214" d="M307 530q0 -82 16.5 -152.5t53.5 -122.5t95 -82t140 -30q78 0 143.5 27t100.5 55v672q-29 8 -77 14.5t-134 6.5q-154 0 -246 -101t-92 -287zM109 530q0 129 37.5 232.5t107.5 175.5t168 110.5t221 38.5q133 0 234.5 -19t169.5 -36v-1411h-191v426q-35 -23 -105.5 -47.5 t-162.5 -24.5q-115 0 -204 41t-150.5 115t-93 176t-31.5 223z" />
<glyph unicode="r" horiz-adv-x="798" d="M561 1087q25 0 56.5 -3t62.5 -8t56.5 -10t37.5 -9l-33 -166q-23 8 -75 19.5t-134 11.5q-53 0 -105 -11.5l-69 -15.5v-895h-190v1020q68 25 168 46t225 21z" />
<glyph unicode="s" horiz-adv-x="921" d="M416 137q117 0 173 31t56 98q0 70 -55 111t-182 92l-118 50.5t-97.5 60t-65.5 84t-25 120.5q0 141 104.5 224.5t285.5 83.5q45 0 90 -5.5t84 -12.5t68.5 -15t45.5 -15l-35 -163q-31 16 -96 33.5t-157 17.5q-80 0 -139.5 -32t-59.5 -99q0 -35 13 -61.5t41 -48t69 -40 t98 -39.5q76 -29 135.5 -56.5t101.5 -64t64.5 -89t22.5 -128.5q0 -147 -110 -223t-312 -76q-141 0 -221 24t-109 36l35 164l104.5 -37t190.5 -25z" />
<glyph unicode="t" horiz-adv-x="831" d="M346 1065h404v-160h-404v-491q0 -80 12.5 -132.5t37 -82t61.5 -42t86 -12.5q86 0 138 19.5t73 28.5l37 -158q-29 -14 -101 -36t-164 -22q-109 0 -179.5 28t-113.5 83t-60 136t-17 188v950l190 33v-330z" />
<glyph unicode="u" horiz-adv-x="1183" d="M1016 31q-66 -16 -173.5 -35t-248.5 -19q-123 0 -207 36t-135 101.5t-73.5 154.5t-22.5 198v598h190v-557q0 -195 61.5 -279t206.5 -84q31 0 64 2.5t61.5 5.5t52 6t33.5 7v899h191v-1034z" />
<glyph unicode="v" horiz-adv-x="1036" d="M999 1065q-80 -299 -187 -573.5t-208 -491.5h-172q-100 217 -207.5 491.5t-187.5 573.5h205q25 -100 58.5 -214t71.5 -225l77 -216l73 -187q35 82 74 187l77 216q38 112 71.5 225.5t58.5 213.5h196z" />
<glyph unicode="w" horiz-adv-x="1599" d="M1038 0q-57 147 -121.5 336.5t-117.5 394.5q-53 -205 -117 -394.5t-121 -336.5h-166q-94 211 -184 481.5t-170 583.5h205q20 -96 49 -209l60.5 -225.5t66.5 -217t65 -182.5q35 96 69 204t65 217l58 215q28 105 48 198h158q18 -92 44.5 -197.5t57.5 -215l64.5 -217 t68.5 -204.5q31 78 65 182.5t66.5 217t61 225.5t49.5 209h197q-80 -313 -170.5 -583.5t-184.5 -481.5h-166z" />
<glyph unicode="x" horiz-adv-x="1054" d="M805 0q-23 45 -55.5 100.5t-71.5 113.5l-80 116l-80 108l-80 -109l-79 -117l-70 -114q-33 -55 -56 -98h-196q72 139 171 284l198 275l-353 506h215l254 -373l256 373h203l-344 -494l202 -281q103 -148 175 -290h-209z" />
<glyph unicode="y" horiz-adv-x="1026" d="M43 -199q23 -10 58.5 -19t70.5 -9q113 0 176.5 50t114.5 163q-129 246 -240.5 521t-185.5 558h205q23 -92 54.5 -198.5t70.5 -219t84 -225.5t94 -217q78 215 135 426t108 434h197q-74 -301 -164 -578.5t-194 -519.5q-41 -92 -85 -158.5t-97.5 -109.5t-120 -63.5 t-150.5 -20.5q-23 0 -47.5 3t-48 8t-43 11.5t-27.5 10.5z" />
<glyph unicode="z" horiz-adv-x="972" d="M874 922q-43 -47 -113 -134l-152 -190l-162 -219q-81 -115 -142 -219h586v-160h-813v127q49 90 120.5 198.5t150.5 216.5l154 202l130 161h-527v160h768v-143z" />
<glyph unicode="{" horiz-adv-x="690" d="M86 686q49 0 84 17.5t58.5 45t34.5 63.5t11 73v368q0 84 18.5 149.5t63.5 109.5t120 68t186 24h8v-150q-117 0 -167 -42t-50 -161v-315q0 -135 -36 -209t-102 -115q66 -41 102 -114.5t36 -208.5v-316q0 -119 50 -160.5t167 -41.5v-150h-8q-111 0 -186 22.5t-120 67.5 t-63.5 110.5t-18.5 149.5v369q0 37 -11 73t-34.5 63.5t-58.5 45t-84 17.5v147z" />
<glyph unicode="|" horiz-adv-x="579" d="M201 1604h178v-1983h-178v1983z" />
<glyph unicode="}" horiz-adv-x="690" d="M604 539q-49 0 -84 -17.5t-58.5 -45t-34.5 -63.5t-11 -73v-369q0 -84 -18.5 -149.5t-63.5 -110.5t-120 -67.5t-185 -22.5h-9v150q117 0 167.5 42t50.5 160v316q0 135 35.5 208.5t101.5 114.5q-66 41 -101.5 115t-35.5 209v315q0 119 -50.5 161t-167.5 42v150h9 q111 0 185.5 -24t119.5 -68t63.5 -109.5t18.5 -149.5v-368q0 -37 11 -73t34.5 -63.5t58.5 -45t84 -17.5v-147z" />
<glyph unicode="~" d="M1069 731q-8 -41 -25.5 -90t-50 -93t-83 -74t-122.5 -30q-61 0 -113 25t-100 53l-106 65q-51 32 -109 31q-33 0 -55 -15t-38.5 -38.5t-27 -51.5t-18.5 -54l-131 37q8 39 26.5 89t50.5 94t82 73.5t122 29.5q61 0 113.5 -24.5t99.5 -52.5l106 -65q51 -32 109 -32 q33 0 55.5 15.5t38.5 39t26.5 51t18.5 54.5z" />
<glyph unicode="&#xa1;" horiz-adv-x="573" d="M184 4q0 172 12.5 312.5t30.5 279.5h119q18 -139 30.5 -279.5t12.5 -312.5v-383h-205v383zM150 928q0 55 36.5 96t100.5 41q63 0 100 -41t37 -96t-37 -96t-100 -41t-100 41t-37 96z" />
<glyph unicode="&#xa2;" d="M180 596q0 100 28 188t78 158t123.5 117t165.5 65v295h170v-284q119 -6 226 -48l-43 -157q-43 18 -99.5 30.5t-119.5 12.5q-160 0 -245 -96.5t-85 -280.5q0 -82 19.5 -150.5t61.5 -117.5t107.5 -76t159.5 -27q76 0 137.5 14.5t96.5 28.5l26 -155q-29 -16 -98.5 -31.5 t-143.5 -20.5v-284h-170v295q-98 18 -171.5 64t-123 114.5t-75 157t-25.5 188.5z" />
<glyph unicode="&#xa3;" d="M508 764h387v-154h-387v-16q0 -102 -8 -215t-25 -215h592v-164h-807q23 145 40 289.5t17 290.5v30h-190v154h190v170q0 152 32 251t90.5 157.5t140.5 81t180 22.5q90 0 151.5 -16.5t118.5 -38.5l-47 -164q-109 51 -231 51q-55 0 -100.5 -16.5t-77 -55.5t-49 -104.5 t-17.5 -163.5v-174z" />
<glyph unicode="&#xa4;" d="M186 711q0 125 58 217l-150 151l119 119l152 -154q96 59 217 60q121 0 215 -60l153 154l119 -119l-151 -151q29 -45 44 -99.5t15 -117.5q0 -66 -15.5 -119t-43.5 -98l151 -152l-119 -119l-153 152q-98 -57 -215 -58q-59 0 -114.5 14.5t-102.5 43.5l-152 -152l-119 119 l150 150q-58 92 -58 219zM823 711q0 57 -19.5 104t-52 81t-76.5 51.5t-93 17.5t-93.5 -17.5t-77 -51.5t-52 -81t-19.5 -104q0 -59 19.5 -105.5t52 -80t76.5 -51t94 -17.5q49 0 93 17.5t76.5 51t52 80t19.5 105.5z" />
<glyph unicode="&#xa5;" d="M489 0v217h-331v145h331v209h-331v146h278l-210 357l-187 345h211q74 -160 160 -319.5t178 -306.5q90 147 173 307l159 319h206l-189 -347q-99 -177 -210 -355h281v-146h-332v-209h332v-145h-332v-217h-187z" />
<glyph unicode="&#xa6;" horiz-adv-x="579" d="M201 406h178v-785h-178v785zM201 1604h178v-785h-178v785z" />
<glyph unicode="&#xa7;" horiz-adv-x="1015" d="M143 -2q61 -27 135 -45.5t189 -18.5t173 34t58 108q0 72 -55 111.5t-186 84.5q-74 25 -140.5 53.5t-116.5 69.5t-79 98.5t-29 139.5q0 53 17.5 99t43 84t58.5 65.5t63 46.5q-51 41 -80.5 94t-29.5 123q0 141 99 224t280 83q104 0 194 -20.5t144 -36.5l-43 -158 q-49 18 -120 38.5t-177 20.5q-80 0 -138.5 -33.5t-58.5 -101.5q0 -37 12.5 -62.5t39 -47t67.5 -40t98 -36.5q74 -25 140.5 -53.5t116.5 -69.5t79 -98.5t29 -139.5q0 -51 -16.5 -96t-41 -82t-56.5 -66.5t-62 -47.5q59 -43 96 -100.5t37 -133.5q0 -154 -108.5 -232.5 t-309.5 -78.5q-137 0 -226 21.5t-143 47.5zM455 836q-14 4 -27.5 9l-28.5 11q-59 -39 -96 -91t-37 -114q0 -53 23.5 -89t65.5 -63.5t99.5 -49t125.5 -43.5l19 -7.5l19 -7.5q59 39 96.5 90t37.5 115q0 53 -23.5 89t-64.5 62.5t-94.5 47.5t-114.5 41z" />
<glyph unicode="&#xa8;" horiz-adv-x="778" d="M195 1262q-47 0 -83 33.5t-36 86.5t35.5 87t83.5 34q47 0 82.5 -33.5t35.5 -87.5q0 -53 -35.5 -86.5t-82.5 -33.5zM584 1262q-47 0 -83 33.5t-36 86.5t36 87t83 34t82.5 -33.5t35.5 -87.5q0 -53 -35.5 -86.5t-82.5 -33.5z" />
<glyph unicode="&#xa9;" horiz-adv-x="1675" d="M1538 711q0 -174 -57.5 -312.5t-153.5 -233.5t-223 -145.5t-266 -50.5t-266.5 50.5t-223.5 145.5t-153.5 233.5t-57.5 312.5t57.5 312t153.5 233.5t223 145.5t267 50q139 0 266 -50t223 -145.5t153.5 -233.5t57.5 -312zM1389 711q0 135 -41 246.5t-114 191.5t-174.5 123 t-221.5 43q-121 0 -222.5 -43t-174 -123t-113.5 -191.5t-41 -246.5t41 -247t113.5 -191.5t174 -123t222.5 -43.5t222 43.5t174 123t114 191.5t41 247zM862 287q-88 0 -159.5 28.5t-124 82t-81 132t-28.5 181.5q0 100 31.5 178t85 132t125 83t151.5 29q53 0 97.5 -8.5 t77 -19.5t54 -22.5t29.5 -17.5l-47 -123q-25 14 -79 33.5t-126 19.5q-104 0 -173.5 -72.5t-69.5 -211.5q0 -127 63.5 -208t185.5 -81q80 0 132.5 17.5t80.5 31.5l39 -123q-10 -6 -33.5 -17.5t-58.5 -20.5t-79 -16t-93 -7z" />
<glyph unicode="&#xaa;" horiz-adv-x="804" d="M406 801q45 0 90 2t55 6v205q-23 4 -57.5 6t-67.5 2q-35 0 -71 -4t-64.5 -16.5t-47 -34t-18.5 -54.5q0 -61 48.5 -86.5t132.5 -25.5zM391 1446q84 0 141.5 -20.5t93.5 -57.5t51 -89t15 -118v-459q-49 -10 -133 -19t-168 -9q-68 0 -124 13t-97 42t-64.5 74t-23.5 110 q0 63 26.5 108.5t71.5 73t104.5 40t125.5 12.5q29 0 63.5 -2t77.5 -8v6q0 31 -6 61.5t-24.5 54t-51.5 39t-86 15.5q-47 0 -103.5 -6.5t-97.5 -20.5l-20 129q39 10 101 20.5t128 10.5z" />
<glyph unicode="&#xab;" horiz-adv-x="1030" d="M66 582l319 452l133 -71l-227 -381l227 -381l-133 -72zM492 582l319 452l133 -71l-227 -381l227 -381l-133 -72z" />
<glyph unicode="&#xac;" d="M1051 807v-698h-164v536h-774v162h938z" />
<glyph unicode="&#xad;" horiz-adv-x="620" d="M57 702h506v-178h-506v178z" />
<glyph unicode="&#xae;" horiz-adv-x="1675" d="M1538 711q0 -174 -57.5 -312.5t-153.5 -233.5t-223 -145.5t-266 -50.5t-266.5 50.5t-223.5 145.5t-153.5 233.5t-57.5 312.5t57.5 312t153.5 233.5t223 145.5t267 50q139 0 266 -50t223 -145.5t153.5 -233.5t57.5 -312zM1389 711q0 135 -41 246.5t-114 191.5t-174.5 123 t-221.5 43q-121 0 -222.5 -43t-174 -123t-113.5 -191.5t-41 -246.5t41 -247t113.5 -191.5t174 -123t222.5 -43.5t222 43.5t174 123t114 191.5t41 247zM1040 303q-47 92 -105 175t-101 132h-138v-307h-145v795q55 12 116.5 18t112.5 6q176 0 268.5 -65.5t92.5 -198.5 q0 -76 -40 -132t-114 -87l47 -61.5t56 -81.5l57 -95q29 -49 51 -98h-158zM696 729h78q92 0 153.5 25.5t61.5 105.5q0 76 -58.5 105.5t-139.5 29.5q-23 0 -47.5 -1t-47.5 -3v-262z" />
<glyph unicode="&#xaf;" horiz-adv-x="778" d="M98 1456h582v-147h-582v147z" />
<glyph unicode="&#xb0;" horiz-adv-x="688" d="M631 1305q0 -66 -23.5 -119t-62.5 -90t-91.5 -56.5t-109.5 -19.5t-109.5 19.5t-91.5 56.5t-62.5 90t-23.5 119t23.5 119t62.5 89.5t91.5 56t109.5 19.5t109.5 -19.5t91.5 -56t62.5 -89.5t23.5 -119zM494 1305q0 72 -44 113.5t-106 41.5q-61 0 -105 -42t-44 -113 q0 -72 44 -114t105 -42t105.5 42t44.5 114z" />
<glyph unicode="&#xb1;" d="M113 858h387v412h164v-412h387v-162h-387v-411h-164v411h-387v162zM113 162h938v-162h-938v162z" />
<glyph unicode="&#xb2;" horiz-adv-x="743" d="M610 1225q0 -43 -19.5 -84t-52 -81t-75.5 -80l-92 -83q-35 -29 -69 -62.5t-40 -60.5h381v-129h-545q-6 68 9.5 120t45 95t68.5 79l82 73q70 59 114 109t44 100q0 53 -34 77.5t-93 24.5q-35 0 -65.5 -9t-55.5 -22.5t-44 -27l-30 -21.5l-73 100q35 37 105.5 73t162.5 36 q141 0 208.5 -59t67.5 -168z" />
<glyph unicode="&#xb3;" horiz-adv-x="743" d="M299 756q109 0 149.5 33.5t40.5 87.5q0 35 -18 59.5t-50 39.5t-73 22.5t-84 7.5h-39v116h51q29 0 61 5.5t57.5 17.5t42 33.5t16.5 52.5q0 51 -38 72.5t-98 21.5q-55 0 -102 -19.5t-82 -35.5l-51 112q33 23 101.5 46.5t138.5 23.5q150 0 212 -60.5t62 -154.5 q0 -100 -113 -164q72 -23 114 -75t42 -124q0 -53 -18.5 -97t-59.5 -77.5t-105.5 -52t-154.5 -18.5q-63 0 -129 14t-102 33l30 123q45 -16 95.5 -29.5t103.5 -13.5z" />
<glyph unicode="&#xb4;" horiz-adv-x="778" d="M649 1468l-289 -280l-96 86l262 315z" />
<glyph unicode="&#xb5;" horiz-adv-x="1196" d="M358 1065v-569q0 -195 63.5 -273t205.5 -78q31 0 63.5 2.5t61 5.5t52 6t34.5 7v899h190v-1034q-66 -16 -169 -35t-226 -19q-113 0 -179.5 24t-107.5 69q6 -57 8 -115.5t2 -122.5v-211h-188v1444h190z" />
<glyph unicode="&#xb6;" horiz-adv-x="1331" d="M795 1276q-16 0 -33 -1t-29 -3v-1651h-160v916q-227 23 -354 129t-127 315q0 113 46 197t132 141t209 86t275 29q86 0 184 -7.5t182 -27.5v-1778h-159v1645q-29 4 -72 7t-94 3z" />
<glyph unicode="&#xb7;" horiz-adv-x="512" d="M393 603q0 -55 -37 -96.5t-100 -41.5t-100 41t-37 97q0 55 37 96t100 41t100 -41t37 -96z" />
<glyph unicode="&#xb8;" horiz-adv-x="778" d="M412 -76q59 -29 85.5 -62.5t26.5 -99.5q0 -23 -10 -49t-34.5 -48.5t-65.5 -37t-101 -14.5q-53 0 -97 8t-71 19l23 116q25 -8 52.5 -14t62.5 -6q74 0 73 47q0 23 -22.5 38t-63.5 32l-14 6q6 20 18 48l25 54q12 27 23.5 48.5t17.5 31.5h131l-31 -57q-18 -35 -28 -60z" />
<glyph unicode="&#xb9;" horiz-adv-x="743" d="M106 1272q78 27 154 68.5t131 95.5h101v-791h-144v602q-45 -29 -103.5 -51t-99.5 -35z" />
<glyph unicode="&#xba;" horiz-adv-x="921" d="M829 1061q0 -88 -27.5 -160t-76.5 -123t-116.5 -78.5t-147.5 -27.5t-147.5 27.5t-117 78.5t-77 123t-27.5 160t27.5 160.5t77 123t117 78t147.5 27.5t147.5 -27.5t116.5 -78t76.5 -123t27.5 -160.5zM678 1061q0 115 -56.5 183.5t-160.5 68.5q-102 0 -159.5 -68.5 t-57.5 -183.5q0 -113 56 -182.5t161 -69.5q104 0 160.5 69.5t56.5 182.5z" />
<glyph unicode="&#xbb;" horiz-adv-x="1030" d="M219 129l-133 72l227 381l-227 381l133 71l320 -452zM645 129l-133 72l227 381l-227 381l133 71l320 -452z" />
<glyph unicode="&#xbc;" horiz-adv-x="1798" d="M106 1272q78 27 154 68.5t131 95.5h101v-791h-144v602q-45 -29 -103.5 -51t-99.5 -35zM1384 1419l-801 -1419h-178l801 1419h178zM1643 797v-480h102v-120h-102v-191h-139v191h-396v94q29 51 74 116.5t98.5 135t112.5 136t119 118.5h131zM1504 627q-63 -66 -129 -149 t-113 -161h242v310z" />
<glyph unicode="&#xbd;" horiz-adv-x="1798" d="M106 1272q78 27 154 68.5t131 95.5h101v-791h-144v602q-45 -29 -103.5 -51t-99.5 -35zM1341 1419l-801 -1419h-178l801 1419h178zM1665 586q0 -43 -19.5 -84t-52 -81t-75.5 -80l-92 -83q-35 -29 -69 -62.5t-40 -60.5h381v-129h-545q-6 68 9.5 120t45 95t68.5 79l82 73 q70 59 114 109t44 100q0 53 -34 77.5t-93 24.5q-35 0 -65.5 -9t-55.5 -22.5t-44 -27l-30 -21.5l-73 100q35 37 105.5 73t162.5 36q141 0 208.5 -59t67.5 -168z" />
<glyph unicode="&#xbe;" horiz-adv-x="1798" d="M299 756q109 0 149.5 33.5t40.5 87.5q0 35 -18 59.5t-50 39.5t-73 22.5t-84 7.5h-39v116h51q29 0 61 5.5t57.5 17.5t42 33.5t16.5 52.5q0 51 -38 72.5t-98 21.5q-55 0 -102 -19.5t-82 -35.5l-51 112q33 23 101.5 46.5t138.5 23.5q150 0 212 -60.5t62 -154.5 q0 -100 -113 -164q72 -23 114 -75t42 -124q0 -53 -18.5 -97t-59.5 -77.5t-105.5 -52t-154.5 -18.5q-63 0 -129 14t-102 33l30 123q45 -16 95.5 -29.5t103.5 -13.5zM1415 1419l-801 -1419h-178l801 1419h178zM1643 797v-480h102v-120h-102v-191h-139v191h-396v94 q29 51 74 116.5t98.5 135t112.5 136t119 118.5h131zM1504 627q-63 -66 -129 -149t-113 -161h242v310z" />
<glyph unicode="&#xbf;" horiz-adv-x="835" d="M262 -47q0 -78 56.5 -128t156.5 -50q135 0 264 69l54 -147q-70 -37 -157 -59.5t-185 -22.5q-111 0 -184.5 28.5t-120 73.5t-66 101.5t-19.5 111.5q0 68 26 121t64.5 101.5t83 91.5t83 91t64.5 101t26 121v20q0 9 -2 19h159q8 -41 8 -80q0 -66 -23.5 -119t-57 -99 t-74.5 -87t-75 -82t-57.5 -84t-23.5 -92zM338 928q0 55 37 96t100 41t100 -41t37 -96t-36.5 -96t-100.5 -41q-63 0 -100 41t-37 96z" />
<glyph unicode="&#xc0;" horiz-adv-x="1366" d="M1128 0l-65 181l-64 181h-643l-129 -362h-207l154 417l140 363l137 329q68 157 141 310h182q74 -154 141 -310l137 -329l140 -363l154 -417h-218zM942 526l-130 345q-65 167 -134 321q-72 -154 -136 -321l-128 -345h528zM559 1908l262 -315l-96 -86l-289 280z" />
<glyph unicode="&#xc1;" horiz-adv-x="1366" d="M1128 0l-65 181l-64 181h-643l-129 -362h-207l154 417l140 363l137 329q68 157 141 310h182q74 -154 141 -310l137 -329l140 -363l154 -417h-218zM942 526l-130 345q-65 167 -134 321q-72 -154 -136 -321l-128 -345h528zM940 1787l-289 -280l-96 86l262 315z" />
<glyph unicode="&#xc2;" horiz-adv-x="1366" d="M1128 0l-65 181l-64 181h-643l-129 -362h-207l154 417l140 363l137 329q68 157 141 310h182q74 -154 141 -310l137 -329l140 -363l154 -417h-218zM942 526l-130 345q-65 167 -134 321q-72 -154 -136 -321l-128 -345h528zM682 1894l279 -293l-80 -90l-199 180l-199 -180 l-79 90z" />
<glyph unicode="&#xc3;" horiz-adv-x="1366" d="M1128 0l-65 181l-64 181h-643l-129 -362h-207l154 417l140 363l137 329q68 157 141 310h182q74 -154 141 -310l137 -329l140 -363l154 -417h-218zM942 526l-130 345q-65 167 -134 321q-72 -154 -136 -321l-128 -345h528zM1020 1775q-10 -25 -27.5 -57.5t-44 -60 t-62.5 -47t-79 -19.5q-41 0 -77 14t-68 31q-35 16 -59.5 24.5t-47.5 8.5q-35 0 -64.5 -29t-45.5 -61l-99 49q8 25 26.5 57.5t45.5 60t62.5 47t78.5 19.5q41 0 77 -14.5t69 -30.5q35 -16 59.5 -24.5t46.5 -8.5q35 0 64.5 29t46.5 61z" />
<glyph unicode="&#xc4;" horiz-adv-x="1366" d="M1128 0l-65 181l-64 181h-643l-129 -362h-207l154 417l140 363l137 329q68 157 141 310h182q74 -154 141 -310l137 -329l140 -363l154 -417h-218zM942 526l-130 345q-65 167 -134 321q-72 -154 -136 -321l-128 -345h528zM488 1581q-47 0 -83 33.5t-36 86.5t35.5 87 t83.5 34q47 0 82.5 -33.5t35.5 -87.5q0 -53 -35.5 -86.5t-82.5 -33.5zM877 1581q-47 0 -83 33.5t-36 86.5t36 87t83 34t82.5 -33.5t35.5 -87.5q0 -53 -35.5 -86.5t-82.5 -33.5z" />
<glyph unicode="&#xc5;" horiz-adv-x="1366" d="M356 365l-129 -365h-207l144 390l132 344l127 310l130 293q-39 29 -61.5 72t-22.5 100q0 49 17.5 87t46 66t66.5 42t81 14t81 -14t66.5 -42t46 -65.5t17.5 -87.5q0 -55 -22.5 -97t-59.5 -71l131 -293l128 -312l132 -344l146 -392h-218q-35 92 -65 182l-64 183h-643z M942 526l-130 345q-65 167 -134 321q-72 -154 -136 -320l-128 -346h528zM788 1509q0 53 -31.5 83t-76.5 30t-77 -29.5t-32 -83.5q0 -53 32 -82.5t77 -29.5t76.5 29.5t31.5 82.5z" />
<glyph unicode="&#xc6;" horiz-adv-x="1923" d="M1792 1253h-616v-428h542v-161h-542v-498h667v-166h-864v365h-559l-97 -182l-94 -183h-213l229 417l218 369l210 331l206 302h913v-166zM979 1264q-109 -147 -225 -334l-242 -404h467v738z" />
<glyph unicode="&#xc7;" horiz-adv-x="1277" d="M680 -23q-127 16 -229.5 72.5t-175 150t-112.5 221.5t-40 290q0 178 54 316t146.5 232.5t215.5 143.5t262 49q88 0 158.5 -12.5t123 -28.5t85 -32.5t44.5 -24.5l-57 -164q-18 12 -53 26.5t-79 29t-96.5 23.5t-105.5 9q-113 0 -203 -39t-153.5 -112.5t-97 -179 t-33.5 -236.5q0 -127 29.5 -231.5t89 -179.5t148.5 -116t208 -41q137 0 227 29t135 51l52 -164q-29 -23 -138.5 -54.5t-277.5 -35.5q-6 -12 -11 -23.5t-10 -21.5q59 -29 86 -62.5t27 -99.5q0 -23 -10 -49t-35 -48.5t-65.5 -37t-100.5 -14.5q-53 0 -97 8t-71 19l23 116 q25 -8 52.5 -14t61.5 -6q74 0 74 47q0 23 -22.5 38t-63.5 32l-14 6q8 25 21.5 57t27.5 61z" />
<glyph unicode="&#xc8;" horiz-adv-x="1177" d="M180 0v1419h867v-170h-668v-422h594v-165h-594v-492h719v-170h-918zM537 1908l262 -315l-96 -86l-289 280z" />
<glyph unicode="&#xc9;" horiz-adv-x="1177" d="M180 0v1419h867v-170h-668v-422h594v-165h-594v-492h719v-170h-918zM907 1787l-289 -280l-96 86l262 315z" />
<glyph unicode="&#xca;" horiz-adv-x="1177" d="M180 0v1419h867v-170h-668v-422h594v-165h-594v-492h719v-170h-918zM612 1894l279 -293l-80 -90l-199 180l-199 -180l-79 90z" />
<glyph unicode="&#xcb;" horiz-adv-x="1177" d="M180 0v1419h867v-170h-668v-422h594v-165h-594v-492h719v-170h-918zM418 1581q-47 0 -83 33.5t-36 86.5t35.5 87t83.5 34q47 0 82.5 -33.5t35.5 -87.5q0 -53 -35.5 -86.5t-82.5 -33.5zM807 1581q-47 0 -83 33.5t-36 86.5t36 87t83 34t82.5 -33.5t35.5 -87.5 q0 -53 -35.5 -86.5t-82.5 -33.5z" />
<glyph unicode="&#xcc;" horiz-adv-x="559" d="M180 1419h199v-1419h-199v1419zM158 1908l262 -315l-96 -86l-289 280z" />
<glyph unicode="&#xcd;" horiz-adv-x="559" d="M180 1419h199v-1419h-199v1419zM528 1787l-289 -280l-96 86l262 315z" />
<glyph unicode="&#xce;" horiz-adv-x="559" d="M180 1419h199v-1419h-199v1419zM280 1894l279 -293l-80 -90l-199 180l-199 -180l-79 90z" />
<glyph unicode="&#xcf;" horiz-adv-x="559" d="M180 1419h199v-1419h-199v1419zM86 1581q-47 0 -83 33.5t-36 86.5t35.5 87t83.5 34q47 0 82.5 -33.5t35.5 -87.5q0 -53 -35.5 -86.5t-82.5 -33.5zM475 1581q-47 0 -83 33.5t-36 86.5t36 87t83 34t82.5 -33.5t35.5 -87.5q0 -53 -35.5 -86.5t-82.5 -33.5z" />
<glyph unicode="&#xd0;" horiz-adv-x="1495" d="M1372 711q0 -184 -57.5 -320.5t-161.5 -225.5t-249.5 -133t-319.5 -44q-86 0 -189.5 7t-187.5 28v641h-164v153h164v582q84 20 187.5 27.5t189.5 7.5q174 0 319.5 -44t249.5 -133.5t161.5 -225.5t57.5 -320zM600 162q283 0 422 144.5t139 404.5t-139 404.5t-422 144.5 q-84 0 -130 -2.5t-64 -4.5v-436h266v-153h-266v-496q18 -2 64 -4t130 -2z" />
<glyph unicode="&#xd1;" horiz-adv-x="1499" d="M1153 0l-103 170l-126 196l-141 205l-144 202l-139 183l-125 152v-1108h-195v1419h158q96 -102 206 -238l217 -281l203 -284q95 -139 160 -247v1050h195v-1419h-166zM1087 1775q-10 -25 -27.5 -57.5t-44 -60t-62.5 -47t-79 -19.5q-41 0 -77 14t-68 31q-35 16 -59.5 24.5 t-47.5 8.5q-35 0 -64.5 -29t-45.5 -61l-99 49q8 25 26.5 57.5t45.5 60t62.5 47t78.5 19.5q41 0 77 -14.5t69 -30.5q35 -16 59.5 -24.5t46.5 -8.5q35 0 64.5 29t46.5 61z" />
<glyph unicode="&#xd2;" horiz-adv-x="1601" d="M123 711q0 182 54 321t147.5 232.5t217.5 140.5t263 47q137 0 259 -47t214 -140.5t146.5 -232.5t54.5 -321t-54.5 -321.5t-146.5 -233t-214 -140.5t-259 -47q-139 0 -263 47t-217.5 140.5t-147.5 233t-54 321.5zM332 711q0 -129 32.5 -234.5t93 -179.5t147.5 -114 t196 -40t194.5 40t146 114t93.5 179.5t33 234.5t-33 234.5t-93.5 179t-146.5 113.5t-194 40q-109 0 -196 -40t-147.5 -113.5t-93 -179t-32.5 -234.5zM678 1908l262 -315l-96 -86l-289 280z" />
<glyph unicode="&#xd3;" horiz-adv-x="1601" d="M123 711q0 182 54 321t147.5 232.5t217.5 140.5t263 47q137 0 259 -47t214 -140.5t146.5 -232.5t54.5 -321t-54.5 -321.5t-146.5 -233t-214 -140.5t-259 -47q-139 0 -263 47t-217.5 140.5t-147.5 233t-54 321.5zM332 711q0 -129 32.5 -234.5t93 -179.5t147.5 -114 t196 -40t194.5 40t146 114t93.5 179.5t33 234.5t-33 234.5t-93.5 179t-146.5 113.5t-194 40q-109 0 -196 -40t-147.5 -113.5t-93 -179t-32.5 -234.5zM1048 1787l-289 -280l-96 86l262 315z" />
<glyph unicode="&#xd4;" horiz-adv-x="1601" d="M123 711q0 182 54 321t147.5 232.5t217.5 140.5t263 47q137 0 259 -47t214 -140.5t146.5 -232.5t54.5 -321t-54.5 -321.5t-146.5 -233t-214 -140.5t-259 -47q-139 0 -263 47t-217.5 140.5t-147.5 233t-54 321.5zM332 711q0 -129 32.5 -234.5t93 -179.5t147.5 -114 t196 -40t194.5 40t146 114t93.5 179.5t33 234.5t-33 234.5t-93.5 179t-146.5 113.5t-194 40q-109 0 -196 -40t-147.5 -113.5t-93 -179t-32.5 -234.5zM801 1894l279 -293l-80 -90l-199 180l-199 -180l-79 90z" />
<glyph unicode="&#xd5;" horiz-adv-x="1601" d="M123 711q0 182 54 321t147.5 232.5t217.5 140.5t263 47q137 0 259 -47t214 -140.5t146.5 -232.5t54.5 -321t-54.5 -321.5t-146.5 -233t-214 -140.5t-259 -47q-139 0 -263 47t-217.5 140.5t-147.5 233t-54 321.5zM332 711q0 -129 32.5 -234.5t93 -179.5t147.5 -114 t196 -40t194.5 40t146 114t93.5 179.5t33 234.5t-33 234.5t-93.5 179t-146.5 113.5t-194 40q-109 0 -196 -40t-147.5 -113.5t-93 -179t-32.5 -234.5zM1139 1775q-10 -25 -27.5 -57.5t-44 -60t-62.5 -47t-79 -19.5q-41 0 -77 14t-68 31q-35 16 -59.5 24.5t-47.5 8.5 q-35 0 -64.5 -29t-45.5 -61l-99 49q8 25 26.5 57.5t45.5 60t62.5 47t78.5 19.5q41 0 77 -14.5t69 -30.5q35 -16 59.5 -24.5t46.5 -8.5q35 0 64.5 29t46.5 61z" />
<glyph unicode="&#xd6;" horiz-adv-x="1601" d="M123 711q0 182 54 321t147.5 232.5t217.5 140.5t263 47q137 0 259 -47t214 -140.5t146.5 -232.5t54.5 -321t-54.5 -321.5t-146.5 -233t-214 -140.5t-259 -47q-139 0 -263 47t-217.5 140.5t-147.5 233t-54 321.5zM332 711q0 -129 32.5 -234.5t93 -179.5t147.5 -114 t196 -40t194.5 40t146 114t93.5 179.5t33 234.5t-33 234.5t-93.5 179t-146.5 113.5t-194 40q-109 0 -196 -40t-147.5 -113.5t-93 -179t-32.5 -234.5zM607 1581q-47 0 -83 33.5t-36 86.5t35.5 87t83.5 34q47 0 82.5 -33.5t35.5 -87.5q0 -53 -35.5 -86.5t-82.5 -33.5z M996 1581q-47 0 -83 33.5t-36 86.5t36 87t83 34t82.5 -33.5t35.5 -87.5q0 -53 -35.5 -86.5t-82.5 -33.5z" />
<glyph unicode="&#xd7;" d="M881 199l-299 299l-299 -299l-115 114l299 299l-299 299l115 115l299 -299l299 299l114 -115l-299 -299l299 -299z" />
<glyph unicode="&#xd8;" horiz-adv-x="1601" d="M123 711q0 182 54 321t147.5 232.5t217.5 140.5t263 47q217 0 385 -115l121 158l127 -94l-131 -170q80 -92 126 -222t46 -298q0 -182 -54.5 -321.5t-146.5 -233t-214 -140.5t-259 -47q-109 0 -206 28t-181 83l-119 -154l-127 94l127 164q-82 92 -129 223.5t-47 303.5z M332 711q0 -223 90 -367l653 846q-113 88 -274 88q-109 0 -196 -40t-147.5 -113.5t-93 -179t-32.5 -234.5zM801 143q109 0 194.5 40t146 114t93.5 179.5t33 234.5q0 109 -22.5 197.5t-63.5 160.5l-652 -842q109 -84 271 -84z" />
<glyph unicode="&#xd9;" horiz-adv-x="1417" d="M709 -31q-139 0 -241.5 43t-168.5 118t-97.5 177.5t-31.5 220.5v891h199v-868q0 -213 94 -309.5t246 -96.5q76 0 138 24t107 73t70 125.5t25 183.5v868h198v-891q0 -119 -31.5 -221t-98 -177t-168 -118t-240.5 -43zM586 1908l262 -315l-96 -86l-289 280z" />
<glyph unicode="&#xda;" horiz-adv-x="1417" d="M709 -31q-139 0 -241.5 43t-168.5 118t-97.5 177.5t-31.5 220.5v891h199v-868q0 -213 94 -309.5t246 -96.5q76 0 138 24t107 73t70 125.5t25 183.5v868h198v-891q0 -119 -31.5 -221t-98 -177t-168 -118t-240.5 -43zM956 1787l-289 -280l-96 86l262 315z" />
<glyph unicode="&#xdb;" horiz-adv-x="1417" d="M709 -31q-139 0 -241.5 43t-168.5 118t-97.5 177.5t-31.5 220.5v891h199v-868q0 -213 94 -309.5t246 -96.5q76 0 138 24t107 73t70 125.5t25 183.5v868h198v-891q0 -119 -31.5 -221t-98 -177t-168 -118t-240.5 -43zM708 1894l279 -293l-80 -90l-199 180l-199 -180l-79 90 z" />
<glyph unicode="&#xdc;" horiz-adv-x="1417" d="M709 -31q-139 0 -241.5 43t-168.5 118t-97.5 177.5t-31.5 220.5v891h199v-868q0 -213 94 -309.5t246 -96.5q76 0 138 24t107 73t70 125.5t25 183.5v868h198v-891q0 -119 -31.5 -221t-98 -177t-168 -118t-240.5 -43zM514 1581q-47 0 -83 33.5t-36 86.5t35.5 87t83.5 34 q47 0 82.5 -33.5t35.5 -87.5q0 -53 -35.5 -86.5t-82.5 -33.5zM903 1581q-47 0 -83 33.5t-36 86.5t36 87t83 34t82.5 -33.5t35.5 -87.5q0 -53 -35.5 -86.5t-82.5 -33.5z" />
<glyph unicode="&#xdd;" horiz-adv-x="1232" d="M518 0v569l-266 432l-236 418h234q78 -168 174 -341t199 -333q100 160 196 333t176 341h222l-236 -417l-264 -429v-573h-199zM866 1787l-289 -280l-96 86l262 315z" />
<glyph unicode="&#xde;" horiz-adv-x="1255" d="M379 455h149q102 0 184.5 13t138.5 46t87 88t31 141q0 82 -32 136.5t-89 86t-137 44t-176 12.5h-77q-40 0 -79 -4v-563zM379 1419v-231q39 4 81 5t81 1q637 0 637 -453q0 -123 -44 -207.5t-127 -139t-202 -79t-268 -24.5h-158v-291h-199v1419h199z" />
<glyph unicode="&#xdf;" horiz-adv-x="1284" d="M1024 1262q0 -51 -14.5 -91.5t-36 -74t-46.5 -62.5l-48 -53l-80 -85q-33 -34 -33 -85q0 -31 15.5 -53.5t40 -39t54.5 -30.5l60 -29q55 -27 103 -57.5t84 -70t55.5 -94t19.5 -130.5q0 -160 -99.5 -246t-307.5 -86q-43 0 -86 6.5t-80 15.5t-65 19.5t-40 16.5l33 166 q12 -6 37.5 -16.5t59.5 -20.5t74 -17.5t81 -7.5q102 0 151.5 45t49.5 121q0 80 -47.5 131t-163.5 105q-68 31 -112 58.5t-68.5 56t-35 59t-10.5 71.5q0 82 45 137.5t97 108.5q20 20 41.5 45t40 50.5t30 52t11.5 55.5q0 90 -53.5 140t-159.5 50q-137 0 -200 -77.5t-63 -215.5 v-1130h-190v1135q0 102 28.5 186t84 143.5t137.5 92t188 32.5q111 0 191 -24.5t130 -68.5t73.5 -104t23.5 -130z" />
<glyph unicode="&#xe0;" horiz-adv-x="1077" d="M528 137q68 0 120 3t87 12v317q-20 10 -66 17.5t-112 7.5q-43 0 -91 -6.5t-88 -26t-66.5 -53t-26.5 -89.5q0 -102 65 -142t178 -40zM512 1092q115 0 193.5 -30t127 -84t69 -129t20.5 -165v-666l-69 -11q-44 -7 -99.5 -13t-120 -11.5t-127.5 -5.5q-90 0 -166 18.5 t-131 58.5t-86 105.5t-31 157.5q0 88 36 151.5t97.5 102.5t143.5 57.5t172 18.5q29 0 59.5 -3t57.5 -8l49 -9q20 -4 28 -6v53q0 47 -10 93t-36.5 82t-73 57.5t-119.5 21.5q-94 0 -165 -13.5t-106 -27.5l-22 157q37 16 123 32t186 16zM420 1589l262 -315l-96 -86l-289 280z " />
<glyph unicode="&#xe1;" horiz-adv-x="1077" d="M528 137q68 0 120 3t87 12v317q-20 10 -66 17.5t-112 7.5q-43 0 -91 -6.5t-88 -26t-66.5 -53t-26.5 -89.5q0 -102 65 -142t178 -40zM512 1092q115 0 193.5 -30t127 -84t69 -129t20.5 -165v-666l-69 -11q-44 -7 -99.5 -13t-120 -11.5t-127.5 -5.5q-90 0 -166 18.5 t-131 58.5t-86 105.5t-31 157.5q0 88 36 151.5t97.5 102.5t143.5 57.5t172 18.5q29 0 59.5 -3t57.5 -8l49 -9q20 -4 28 -6v53q0 47 -10 93t-36.5 82t-73 57.5t-119.5 21.5q-94 0 -165 -13.5t-106 -27.5l-22 157q37 16 123 32t186 16zM790 1468l-289 -280l-96 86l262 315z " />
<glyph unicode="&#xe2;" horiz-adv-x="1077" d="M528 137q68 0 120 3t87 12v317q-20 10 -66 17.5t-112 7.5q-43 0 -91 -6.5t-88 -26t-66.5 -53t-26.5 -89.5q0 -102 65 -142t178 -40zM512 1092q115 0 193.5 -30t127 -84t69 -129t20.5 -165v-666l-69 -11q-44 -7 -99.5 -13t-120 -11.5t-127.5 -5.5q-90 0 -166 18.5 t-131 58.5t-86 105.5t-31 157.5q0 88 36 151.5t97.5 102.5t143.5 57.5t172 18.5q29 0 59.5 -3t57.5 -8l49 -9q20 -4 28 -6v53q0 47 -10 93t-36.5 82t-73 57.5t-119.5 21.5q-94 0 -165 -13.5t-106 -27.5l-22 157q37 16 123 32t186 16zM543 1575l279 -293l-80 -90l-199 180 l-199 -180l-79 90z" />
<glyph unicode="&#xe3;" horiz-adv-x="1077" d="M528 137q68 0 120 3t87 12v317q-20 10 -66 17.5t-112 7.5q-43 0 -91 -6.5t-88 -26t-66.5 -53t-26.5 -89.5q0 -102 65 -142t178 -40zM512 1092q115 0 193.5 -30t127 -84t69 -129t20.5 -165v-666l-69 -11q-44 -7 -99.5 -13t-120 -11.5t-127.5 -5.5q-90 0 -166 18.5 t-131 58.5t-86 105.5t-31 157.5q0 88 36 151.5t97.5 102.5t143.5 57.5t172 18.5q29 0 59.5 -3t57.5 -8l49 -9q20 -4 28 -6v53q0 47 -10 93t-36.5 82t-73 57.5t-119.5 21.5q-94 0 -165 -13.5t-106 -27.5l-22 157q37 16 123 32t186 16zM881 1456q-10 -25 -27.5 -57.5t-44 -60 t-62.5 -47t-79 -19.5q-41 0 -77 14t-68 31q-35 16 -59.5 24.5t-47.5 8.5q-35 0 -64.5 -29t-45.5 -61l-99 49q8 25 26.5 57.5t45.5 60t62.5 47t78.5 19.5q41 0 77 -14.5t69 -30.5q35 -16 59.5 -24.5t46.5 -8.5q35 0 64.5 29t46.5 61z" />
<glyph unicode="&#xe4;" horiz-adv-x="1077" d="M528 137q68 0 120 3t87 12v317q-20 10 -66 17.5t-112 7.5q-43 0 -91 -6.5t-88 -26t-66.5 -53t-26.5 -89.5q0 -102 65 -142t178 -40zM512 1092q115 0 193.5 -30t127 -84t69 -129t20.5 -165v-666l-69 -11q-44 -7 -99.5 -13t-120 -11.5t-127.5 -5.5q-90 0 -166 18.5 t-131 58.5t-86 105.5t-31 157.5q0 88 36 151.5t97.5 102.5t143.5 57.5t172 18.5q29 0 59.5 -3t57.5 -8l49 -9q20 -4 28 -6v53q0 47 -10 93t-36.5 82t-73 57.5t-119.5 21.5q-94 0 -165 -13.5t-106 -27.5l-22 157q37 16 123 32t186 16zM349 1262q-47 0 -83 33.5t-36 86.5 t35.5 87t83.5 34q47 0 82.5 -33.5t35.5 -87.5q0 -53 -35.5 -86.5t-82.5 -33.5zM738 1262q-47 0 -83 33.5t-36 86.5t36 87t83 34t82.5 -33.5t35.5 -87.5q0 -53 -35.5 -86.5t-82.5 -33.5z" />
<glyph unicode="&#xe5;" horiz-adv-x="1077" d="M528 137q68 0 120 3t87 12v317q-20 10 -66 17.5t-112 7.5q-43 0 -91 -6.5t-88 -26t-66.5 -53t-26.5 -89.5q0 -102 65 -142t178 -40zM512 1092q115 0 193.5 -30t127 -84t69 -129t20.5 -165v-666l-69 -11q-44 -7 -99.5 -13t-120 -11.5t-127.5 -5.5q-90 0 -166 18.5 t-131 58.5t-86 105.5t-31 157.5q0 88 36 151.5t97.5 102.5t143.5 57.5t172 18.5q29 0 59.5 -3t57.5 -8l49 -9q20 -4 28 -6v53q0 47 -10 93t-36.5 82t-73 57.5t-119.5 21.5q-94 0 -165 -13.5t-106 -27.5l-22 157q37 16 123 32t186 16zM754 1386q0 -49 -17.5 -86.5t-46 -65.5 t-66.5 -42t-81 -14t-81 14t-66.5 42t-46 65.5t-17.5 86.5t17.5 87t46 66t66.5 42t81 14t81 -14t66.5 -42t46 -66t17.5 -87zM652 1386q0 53 -32 83t-77 30t-76.5 -29.5t-31.5 -83.5q0 -53 31.5 -82.5t76.5 -29.5t77 29.5t32 82.5z" />
<glyph unicode="&#xe6;" horiz-adv-x="1767" d="M1260 -25q-117 0 -204 28t-153 81q-20 -14 -54 -32.5t-81 -36t-105.5 -29t-127.5 -11.5q-102 0 -183.5 18.5t-138.5 59.5t-88 106.5t-31 157.5q0 88 36 151.5t97.5 102.5t143.5 57.5t172 18.5q29 0 59.5 -3t56.5 -8l48 -9q20 -4 28 -6v53q0 47 -10 93t-36.5 82t-73 57.5 t-119.5 21.5q-94 0 -165 -13.5t-106 -27.5l-22 157q37 16 122 32t183 16q141 0 224 -48.5t124 -134.5q68 92 160 137.5t192 45.5q213 0 329 -135.5t116 -407.5q0 -16 -1 -27.5t-1 -21.5v-19h-729q12 -164 97 -251t261 -87q100 0 169 17.5t103 34.5l27 -160 q-35 -18 -121.5 -39t-197.5 -21zM539 137q106 0 167.5 23.5t94.5 46.5q-31 57 -48.5 122.5t-19.5 139.5q-23 10 -65.5 17.5t-108.5 7.5q-43 0 -91 -6.5t-88 -26t-66.5 -53t-26.5 -89.5q0 -104 66.5 -143t185.5 -39zM1454 635q2 129 -64.5 212t-183.5 83q-66 0 -116 -25.5 t-83.5 -66.5t-54 -94.5t-26.5 -108.5h528z" />
<glyph unicode="&#xe7;" horiz-adv-x="960" d="M655 -25l-22 -51q59 -29 85.5 -62.5t26.5 -99.5q0 -23 -10 -49t-34.5 -48.5t-65.5 -37t-100 -14.5q-53 0 -97.5 8t-70.5 19l22 116q25 -8 52.5 -14t62.5 -6q74 0 74 47q0 23 -23 38t-63 32l-15 6q8 25 22.5 59.5t30.5 65.5q-104 14 -183 60t-132 117.5t-79.5 165 t-26.5 203.5q0 123 35.5 225.5t101 177.5t161 117t211.5 42q72 0 144 -12.5t137 -39.5l-43 -161q-43 20 -99.5 32.5t-119.5 12.5q-160 0 -245 -100.5t-85 -293.5q0 -86 19.5 -157.5t61.5 -122.5t107.5 -79t159.5 -28q76 0 137.5 14.5t96.5 30.5l26 -159q-16 -8 -43.5 -17.5 t-62.5 -16.5t-75 -12.5t-79 -7.5z" />
<glyph unicode="&#xe8;" horiz-adv-x="1153" d="M109 530q0 141 40.5 247t108.5 175.5t156 104.5t180 35q215 0 329.5 -134.5t114.5 -408.5v-32q0 -19 -2 -36h-729q12 -166 96 -252t263 -86q100 0 168.5 17.5t103.5 34.5l27 -160q-35 -18 -122 -39t-198 -21q-139 0 -240.5 42t-167 116t-97 175t-31.5 222zM840 635 q2 129 -64.5 212t-183.5 83q-66 0 -116 -25.5t-85 -66.5t-54.5 -94.5t-25.5 -108.5h529zM467 1589l262 -315l-96 -86l-289 280z" />
<glyph unicode="&#xe9;" horiz-adv-x="1153" d="M109 530q0 141 40.5 247t108.5 175.5t156 104.5t180 35q215 0 329.5 -134.5t114.5 -408.5v-32q0 -19 -2 -36h-729q12 -166 96 -252t263 -86q100 0 168.5 17.5t103.5 34.5l27 -160q-35 -18 -122 -39t-198 -21q-139 0 -240.5 42t-167 116t-97 175t-31.5 222zM840 635 q2 129 -64.5 212t-183.5 83q-66 0 -116 -25.5t-85 -66.5t-54.5 -94.5t-25.5 -108.5h529zM837 1468l-289 -280l-96 86l262 315z" />
<glyph unicode="&#xea;" horiz-adv-x="1153" d="M109 530q0 141 40.5 247t108.5 175.5t156 104.5t180 35q215 0 329.5 -134.5t114.5 -408.5v-32q0 -19 -2 -36h-729q12 -166 96 -252t263 -86q100 0 168.5 17.5t103.5 34.5l27 -160q-35 -18 -122 -39t-198 -21q-139 0 -240.5 42t-167 116t-97 175t-31.5 222zM840 635 q2 129 -64.5 212t-183.5 83q-66 0 -116 -25.5t-85 -66.5t-54.5 -94.5t-25.5 -108.5h529zM590 1575l279 -293l-80 -90l-199 180l-199 -180l-79 90z" />
<glyph unicode="&#xeb;" horiz-adv-x="1153" d="M109 530q0 141 40.5 247t108.5 175.5t156 104.5t180 35q215 0 329.5 -134.5t114.5 -408.5v-32q0 -19 -2 -36h-729q12 -166 96 -252t263 -86q100 0 168.5 17.5t103.5 34.5l27 -160q-35 -18 -122 -39t-198 -21q-139 0 -240.5 42t-167 116t-97 175t-31.5 222zM840 635 q2 129 -64.5 212t-183.5 83q-66 0 -116 -25.5t-85 -66.5t-54.5 -94.5t-25.5 -108.5h529zM396 1262q-47 0 -83 33.5t-36 86.5t35.5 87t83.5 34q47 0 82.5 -33.5t35.5 -87.5q0 -53 -35.5 -86.5t-82.5 -33.5zM785 1262q-47 0 -83 33.5t-36 86.5t36 87t83 34t82.5 -33.5 t35.5 -87.5q0 -53 -35.5 -86.5t-82.5 -33.5z" />
<glyph unicode="&#xec;" horiz-adv-x="526" d="M358 0h-190v1065h190v-1065zM141 1589l262 -315l-96 -86l-289 280z" />
<glyph unicode="&#xed;" horiz-adv-x="526" d="M358 0h-190v1065h190v-1065zM512 1468l-289 -280l-96 86l262 315z" />
<glyph unicode="&#xee;" horiz-adv-x="526" d="M358 0h-190v1065h190v-1065zM264 1575l279 -293l-80 -90l-199 180l-199 -180l-79 90z" />
<glyph unicode="&#xef;" horiz-adv-x="526" d="M358 0h-190v1065h190v-1065zM70 1262q-47 0 -83 33.5t-36 86.5t35.5 87t83.5 34q47 0 82.5 -33.5t35.5 -87.5q0 -53 -35.5 -86.5t-82.5 -33.5zM459 1262q-47 0 -83 33.5t-36 86.5t36 87t83 34t82.5 -33.5t35.5 -87.5q0 -53 -35.5 -86.5t-82.5 -33.5z" />
<glyph unicode="&#xf0;" horiz-adv-x="1214" d="M1159 1346l-219 -76q66 -111 111 -258.5t45 -339.5q0 -135 -23.5 -261t-81 -223.5t-155 -156t-244.5 -58.5q-121 0 -212 45t-151.5 119t-90 170t-29.5 201q0 115 33.5 207t95 156.5t150.5 98.5t200 34q104 0 182 -33t115 -62q-25 164 -113 303l-246 -84l-47 129l209 72 q-68 80 -172 156l121 104q45 -29 103.5 -79t117.5 -124l254 89zM901 666q0 16 -1 32.5t-1 32.5q-70 61 -145.5 84t-141.5 23q-84 0 -142 -26t-95 -71t-54.5 -104t-17.5 -129q0 -74 18.5 -140.5t54.5 -116.5t90 -80t126 -30q94 0 154.5 45t94 119t47 168.5t13.5 192.5z" />
<glyph unicode="&#xf1;" horiz-adv-x="1183" d="M168 1034q66 16 174.5 34.5t249.5 18.5q127 0 211 -35.5t134 -100t70.5 -154.5t20.5 -199v-598h-190v557q0 98 -13.5 168t-44 113t-82 62.5t-127.5 19.5q-31 0 -63.5 -2.5t-62 -5.5t-53 -7l-34.5 -6v-899h-190v1034zM936 1456q-10 -25 -27.5 -57.5t-44 -60t-62.5 -47 t-79 -19.5q-41 0 -77 14t-68 31q-35 16 -59.5 24.5t-47.5 8.5q-35 0 -64.5 -29t-45.5 -61l-99 49q8 25 26.5 57.5t45.5 60t62.5 47t78.5 19.5q41 0 77 -14.5t69 -30.5q35 -16 59.5 -24.5t46.5 -8.5q35 0 64.5 29t46.5 61z" />
<glyph unicode="&#xf2;" horiz-adv-x="1216" d="M1108 532q0 -127 -37 -229t-103.5 -176t-158.5 -114t-201 -40t-201 40t-158.5 114t-103 176.5t-36.5 228.5q0 125 36.5 228.5t103 177.5t159 114t200.5 40q109 0 201 -40t158.5 -114t103.5 -177.5t37 -228.5zM909 532q0 180 -80.5 286t-220.5 106q-139 0 -220 -105.5 t-81 -286.5q0 -180 81 -285.5t220 -105.5t220 105.5t81 285.5zM485 1589l262 -315l-96 -86l-289 280z" />
<glyph unicode="&#xf3;" horiz-adv-x="1216" d="M1108 532q0 -127 -37 -229t-103.5 -176t-158.5 -114t-201 -40t-201 40t-158.5 114t-103 176.5t-36.5 228.5q0 125 36.5 228.5t103 177.5t159 114t200.5 40q109 0 201 -40t158.5 -114t103.5 -177.5t37 -228.5zM909 532q0 180 -80.5 286t-220.5 106q-139 0 -220 -105.5 t-81 -286.5q0 -180 81 -285.5t220 -105.5t220 105.5t81 285.5zM856 1468l-289 -280l-96 86l262 315z" />
<glyph unicode="&#xf4;" horiz-adv-x="1216" d="M1108 532q0 -127 -37 -229t-103.5 -176t-158.5 -114t-201 -40t-201 40t-158.5 114t-103 176.5t-36.5 228.5q0 125 36.5 228.5t103 177.5t159 114t200.5 40q109 0 201 -40t158.5 -114t103.5 -177.5t37 -228.5zM909 532q0 180 -80.5 286t-220.5 106q-139 0 -220 -105.5 t-81 -286.5q0 -180 81 -285.5t220 -105.5t220 105.5t81 285.5zM608 1575l279 -293l-80 -90l-199 180l-199 -180l-79 90z" />
<glyph unicode="&#xf5;" horiz-adv-x="1216" d="M1108 532q0 -127 -37 -229t-103.5 -176t-158.5 -114t-201 -40t-201 40t-158.5 114t-103 176.5t-36.5 228.5q0 125 36.5 228.5t103 177.5t159 114t200.5 40q109 0 201 -40t158.5 -114t103.5 -177.5t37 -228.5zM909 532q0 180 -80.5 286t-220.5 106q-139 0 -220 -105.5 t-81 -286.5q0 -180 81 -285.5t220 -105.5t220 105.5t81 285.5zM946 1456q-10 -25 -27.5 -57.5t-44 -60t-62.5 -47t-79 -19.5q-41 0 -77 14t-68 31q-35 16 -59.5 24.5t-47.5 8.5q-35 0 -64.5 -29t-45.5 -61l-99 49q8 25 26.5 57.5t45.5 60t62.5 47t78.5 19.5q41 0 77 -14.5 t69 -30.5q35 -16 59.5 -24.5t46.5 -8.5q35 0 64.5 29t46.5 61z" />
<glyph unicode="&#xf6;" horiz-adv-x="1216" d="M1108 532q0 -127 -37 -229t-103.5 -176t-158.5 -114t-201 -40t-201 40t-158.5 114t-103 176.5t-36.5 228.5q0 125 36.5 228.5t103 177.5t159 114t200.5 40q109 0 201 -40t158.5 -114t103.5 -177.5t37 -228.5zM909 532q0 180 -80.5 286t-220.5 106q-139 0 -220 -105.5 t-81 -286.5q0 -180 81 -285.5t220 -105.5t220 105.5t81 285.5zM414 1262q-47 0 -83 33.5t-36 86.5t35.5 87t83.5 34q47 0 82.5 -33.5t35.5 -87.5q0 -53 -35.5 -86.5t-82.5 -33.5zM803 1262q-47 0 -83 33.5t-36 86.5t36 87t83 34t82.5 -33.5t35.5 -87.5q0 -53 -35.5 -86.5 t-82.5 -33.5z" />
<glyph unicode="&#xf7;" d="M582 92q-51 0 -87 34t-36 91t35.5 91t87.5 34q51 0 87 -34t36 -91t-36 -91t-87 -34zM582 883q-51 0 -87 33.5t-36 91.5q0 57 35.5 91t87.5 34q51 0 87 -34t36 -91t-36 -91t-87 -34zM113 694h938v-162h-938v162z" />
<glyph unicode="&#xf8;" horiz-adv-x="1216" d="M987 911q57 -72 89 -167t32 -212q0 -127 -37 -229t-103.5 -176t-158.5 -114t-201 -40q-162 0 -280 84l-101 -131l-108 82l110 144q-57 72 -88.5 168t-31.5 212q0 125 36.5 228.5t103 177.5t159 114t200.5 40q80 0 150.5 -22.5t130.5 -63.5l100 131l109 -82zM305 532 q0 -133 43 -225l434 561q-74 57 -174 58q-141 0 -222 -106t-81 -288zM911 532q0 127 -45 224l-432 -561q70 -55 174 -56q141 0 222 105.5t81 287.5z" />
<glyph unicode="&#xf9;" horiz-adv-x="1183" d="M1016 31q-66 -16 -173.5 -35t-248.5 -19q-123 0 -207 36t-135 101.5t-73.5 154.5t-22.5 198v598h190v-557q0 -195 61.5 -279t206.5 -84q31 0 64 2.5t61.5 5.5t52 6t33.5 7v899h191v-1034zM463 1589l262 -315l-96 -86l-289 280z" />
<glyph unicode="&#xfa;" horiz-adv-x="1183" d="M1016 31q-66 -16 -173.5 -35t-248.5 -19q-123 0 -207 36t-135 101.5t-73.5 154.5t-22.5 198v598h190v-557q0 -195 61.5 -279t206.5 -84q31 0 64 2.5t61.5 5.5t52 6t33.5 7v899h191v-1034zM833 1468l-289 -280l-96 86l262 315z" />
<glyph unicode="&#xfb;" horiz-adv-x="1183" d="M1016 31q-66 -16 -173.5 -35t-248.5 -19q-123 0 -207 36t-135 101.5t-73.5 154.5t-22.5 198v598h190v-557q0 -195 61.5 -279t206.5 -84q31 0 64 2.5t61.5 5.5t52 6t33.5 7v899h191v-1034zM586 1575l279 -293l-80 -90l-199 180l-199 -180l-79 90z" />
<glyph unicode="&#xfc;" horiz-adv-x="1183" d="M1016 31q-66 -16 -173.5 -35t-248.5 -19q-123 0 -207 36t-135 101.5t-73.5 154.5t-22.5 198v598h190v-557q0 -195 61.5 -279t206.5 -84q31 0 64 2.5t61.5 5.5t52 6t33.5 7v899h191v-1034zM392 1262q-47 0 -83 33.5t-36 86.5t35.5 87t83.5 34q47 0 82.5 -33.5t35.5 -87.5 q0 -53 -35.5 -86.5t-82.5 -33.5zM781 1262q-47 0 -83 33.5t-36 86.5t36 87t83 34t82.5 -33.5t35.5 -87.5q0 -53 -35.5 -86.5t-82.5 -33.5z" />
<glyph unicode="&#xfd;" horiz-adv-x="1026" d="M43 -199q23 -10 58.5 -19t70.5 -9q113 0 176.5 50t114.5 163q-129 246 -240.5 521t-185.5 558h205q23 -92 54.5 -198.5t70.5 -219t84 -225.5t94 -217q78 215 135 426t108 434h197q-74 -301 -164 -578.5t-194 -519.5q-41 -92 -85 -158.5t-97.5 -109.5t-120 -63.5 t-150.5 -20.5q-23 0 -47.5 3t-48 8t-43 11.5t-27.5 10.5zM786 1468l-289 -280l-96 86l262 315z" />
<glyph unicode="&#xfe;" horiz-adv-x="1214" d="M907 530q0 186 -92 288t-246 102q-31 0 -63.5 -4.5t-62 -9.5t-52 -11t-33.5 -10v-660q35 -29 100.5 -55.5t143.5 -26.5q82 0 140.5 30t95 82t53 122.5t16.5 152.5zM1106 530q0 -121 -32 -223t-93 -176t-150.5 -115t-203.5 -41q-92 0 -163 25t-106 47v-426h-190v1935 l190 33v-542q53 18 111.5 29t112.5 11q117 0 214 -38.5t165.5 -110.5t106.5 -175.5t38 -232.5z" />
<glyph unicode="&#xff;" horiz-adv-x="1026" d="M43 -199q23 -10 58.5 -19t70.5 -9q113 0 176.5 50t114.5 163q-129 246 -240.5 521t-185.5 558h205q23 -92 54.5 -198.5t70.5 -219t84 -225.5t94 -217q78 215 135 426t108 434h197q-74 -301 -164 -578.5t-194 -519.5q-41 -92 -85 -158.5t-97.5 -109.5t-120 -63.5 t-150.5 -20.5q-23 0 -47.5 3t-48 8t-43 11.5t-27.5 10.5zM345 1262q-47 0 -83 33.5t-36 86.5t35.5 87t83.5 34q47 0 82.5 -33.5t35.5 -87.5q0 -53 -35.5 -86.5t-82.5 -33.5zM734 1262q-47 0 -83 33.5t-36 86.5t36 87t83 34t82.5 -33.5t35.5 -87.5q0 -53 -35.5 -86.5 t-82.5 -33.5z" />
<glyph unicode="&#x131;" horiz-adv-x="526" d="M358 0h-190v1065h190v-1065z" />
<glyph unicode="&#x152;" horiz-adv-x="2041" d="M334 711q0 -131 39 -233.5t111.5 -173.5t177 -108.5t233.5 -37.5q47 0 81 1t56 3q25 2 43 6v1083q-45 6 -90 8.5t-90 2.5q-129 0 -233.5 -38t-177 -109t-111.5 -173t-39 -231zM895 -14q-166 0 -307.5 45t-244.5 135t-161.5 226t-58.5 319q0 182 59.5 317t163 225 t244.5 135.5t307 45.5q47 0 104.5 -4.5t108.5 -10.5h801v-166h-637v-428h563v-161h-563v-498h688v-166h-852q-51 -6 -109.5 -10t-105.5 -4z" />
<glyph unicode="&#x153;" horiz-adv-x="1947" d="M1440 -25q-162 0 -269.5 59.5t-166.5 164.5q-66 -111 -166.5 -168.5t-229.5 -57.5q-109 0 -201 40t-158.5 114t-103 176.5t-36.5 228.5q0 125 36.5 228.5t103 177.5t159 114t200.5 40q129 0 230.5 -60.5t165.5 -165.5q68 115 171 170.5t214 55.5q213 0 328.5 -135.5 t115.5 -407.5q0 -16 -1 -27.5t-1 -21.5v-19h-729q12 -164 97 -251t261 -87q100 0 169 17.5t104 34.5l26 -160q-35 -18 -121.5 -39t-197.5 -21zM909 532q0 180 -80.5 286t-220.5 106q-139 0 -220 -105.5t-81 -286.5q0 -180 81 -285.5t220 -105.5t220 105.5t81 285.5z M1634 635q2 129 -64.5 212t-183.5 83q-66 0 -115.5 -25.5t-83.5 -66.5t-54.5 -94.5t-26.5 -108.5h528z" />
<glyph unicode="&#x178;" horiz-adv-x="1232" d="M518 0v569l-266 432l-236 418h234q78 -168 174 -341t199 -333q100 160 196 333t176 341h222l-236 -417l-264 -429v-573h-199zM422 1581q-47 0 -83 33.5t-36 86.5t35.5 87t83.5 34q47 0 82.5 -33.5t35.5 -87.5q0 -53 -35.5 -86.5t-82.5 -33.5zM811 1581q-47 0 -83 33.5 t-36 86.5t36 87t83 34t82.5 -33.5t35.5 -87.5q0 -53 -35.5 -86.5t-82.5 -33.5z" />
<glyph unicode="&#x2c6;" horiz-adv-x="778" d="M389 1575l279 -293l-80 -90l-199 180l-199 -180l-79 90z" />
<glyph unicode="&#x2da;" horiz-adv-x="778" d="M600 1386q0 -49 -17.5 -86.5t-46 -65.5t-66.5 -42t-81 -14t-81 14t-66.5 42t-46 65.5t-17.5 86.5t17.5 87t46 66t66.5 42t81 14t81 -14t66.5 -42t46 -66t17.5 -87zM498 1386q0 53 -32 83t-77 30t-76.5 -29.5t-31.5 -83.5q0 -53 31.5 -82.5t76.5 -29.5t77 29.5t32 82.5z " />
<glyph unicode="&#x2dc;" horiz-adv-x="778" d="M725 1456q-10 -25 -27.5 -57.5t-44 -60t-62.5 -47t-79 -19.5q-41 0 -77 14t-68 31q-35 16 -59.5 24.5t-47.5 8.5q-35 0 -64.5 -29t-45.5 -61l-99 49q8 25 26.5 57.5t45.5 60t62.5 47t78.5 19.5q41 0 77 -14.5t69 -30.5q35 -16 59.5 -24.5t46.5 -8.5q35 0 64.5 29t46.5 61 z" />
<glyph unicode="&#x2000;" horiz-adv-x="954" />
<glyph unicode="&#x2001;" horiz-adv-x="1908" />
<glyph unicode="&#x2002;" horiz-adv-x="954" />
<glyph unicode="&#x2003;" horiz-adv-x="1908" />
<glyph unicode="&#x2004;" horiz-adv-x="634" />
<glyph unicode="&#x2005;" horiz-adv-x="477" />
<glyph unicode="&#x2006;" horiz-adv-x="317" />
<glyph unicode="&#x2007;" horiz-adv-x="317" />
<glyph unicode="&#x2008;" horiz-adv-x="237" />
<glyph unicode="&#x2009;" horiz-adv-x="380" />
<glyph unicode="&#x200a;" horiz-adv-x="104" />
<glyph unicode="&#x2010;" horiz-adv-x="620" d="M57 702h506v-178h-506v178z" />
<glyph unicode="&#x2011;" horiz-adv-x="620" d="M57 702h506v-178h-506v178z" />
<glyph unicode="&#x2012;" horiz-adv-x="620" d="M57 702h506v-178h-506v178z" />
<glyph unicode="&#x2013;" horiz-adv-x="1024" d="M0 694h1024v-162h-1024v162z" />
<glyph unicode="&#x2014;" horiz-adv-x="2048" d="M0 694h2048v-162h-2048v162z" />
<glyph unicode="&#x2018;" horiz-adv-x="489" d="M127 1065v44q0 22 2 42q8 106 47 210.5t94 194.5l148 -47q-43 -90 -64.5 -182t-21.5 -172q0 -20 1 -44t3 -46h-209z" />
<glyph unicode="&#x2019;" horiz-adv-x="489" d="M362 1536v-44q0 -22 -2 -42q-8 -106 -47 -209.5t-94 -196.5l-147 48q43 92 64.5 183t21.5 171q0 20 -1 43.5t-3 46.5h208z" />
<glyph unicode="&#x201a;" horiz-adv-x="489" d="M362 233v-44q0 -22 -2 -42q-8 -106 -47 -210.5t-94 -194.5l-147 47q43 90 64.5 182t21.5 172q0 20 -1 44t-3 46h208z" />
<glyph unicode="&#x201c;" horiz-adv-x="862" d="M127 1065v44q0 22 2 42q8 106 47 210.5t94 194.5l148 -47q-43 -90 -64.5 -182t-21.5 -172q0 -20 1 -44t3 -46h-209zM500 1065v44q0 22 2 42q8 106 47 210.5t94 194.5l148 -47q-43 -90 -64.5 -182t-21.5 -172q0 -20 1 -44t3 -46h-209z" />
<glyph unicode="&#x201d;" horiz-adv-x="862" d="M362 1536v-44q0 -22 -2 -42q-8 -106 -47 -209.5t-94 -196.5l-147 48q43 92 64.5 183t21.5 171q0 20 -1 43.5t-3 46.5h208zM735 1536v-44q0 -22 -2 -42q-8 -106 -47 -209.5t-94 -196.5l-147 48q43 92 64.5 183t21.5 171q0 20 -1 43.5t-3 46.5h208z" />
<glyph unicode="&#x201e;" horiz-adv-x="862" d="M362 233v-44q0 -22 -2 -42q-8 -106 -47 -210.5t-94 -194.5l-147 47q43 90 64.5 182t21.5 172q0 20 -1 44t-3 46h208zM735 233v-44q0 -22 -2 -42q-8 -106 -47 -210.5t-94 -194.5l-147 47q43 90 64.5 182t21.5 172q0 20 -1 44t-3 46h208z" />
<glyph unicode="&#x2022;" horiz-adv-x="745" d="M635 723q0 -53 -18.5 -100.5t-52.5 -82t-82 -56t-109 -21.5t-109.5 21.5t-82.5 56t-52 82t-18 100.5q0 51 18 99t52 83t82 56.5t110 21.5q61 0 109 -21.5t82 -56.5t52.5 -83t18.5 -99z" />
<glyph unicode="&#x2026;" horiz-adv-x="2048" d="M479 111q0 -55 -37 -96.5t-100 -41.5t-100 41t-37 97q0 55 37 96t100 41t100 -41t37 -96zM1161 111q0 -55 -37 -96.5t-100 -41.5t-100 41t-37 97q0 55 37 96t100 41t100 -41t37 -96zM1843 111q0 -55 -37 -96.5t-100 -41.5t-100 41t-37 97q0 55 37 96t100 41t100 -41 t37 -96z" />
<glyph unicode="&#x202f;" horiz-adv-x="380" />
<glyph unicode="&#x2039;" horiz-adv-x="604" d="M66 582l319 452l133 -71l-227 -381l227 -381l-133 -72z" />
<glyph unicode="&#x203a;" horiz-adv-x="604" d="M219 129l-133 72l227 381l-227 381l133 71l320 -452z" />
<glyph unicode="&#x2044;" horiz-adv-x="311" d="M641 1419l-801 -1419h-178l801 1419h178z" />
<glyph unicode="&#x205f;" horiz-adv-x="477" />
<glyph unicode="&#x2074;" horiz-adv-x="743" d="M588 1436v-480h102v-120h-102v-191h-139v191h-396v94q29 51 74 116.5t98.5 135t112.5 136t119 118.5h131zM449 1266q-63 -66 -129 -149t-113 -161h242v310z" />
<glyph unicode="&#x20ac;" d="M285 967q47 240 186 359.5t356 119.5q90 0 149.5 -11.5t119.5 -29.5l-41 -164q-49 18 -107.5 29.5t-120.5 11.5q-78 0 -136 -22.5t-100 -63.5t-68.5 -99.5t-41.5 -129.5h477l-28 -148h-469q-2 -27 -2 -53v-55v-52q0 -25 2 -47h428l-29 -147h-383q35 -182 126 -254 t228 -72q86 0 148.5 16.5t112.5 39.5l41 -162q-35 -18 -121 -39t-191 -21q-240 0 -371 130t-169 362h-185v147h168q-2 23 -2 47v52v55q0 27 2 53h-168v148h189z" />
<glyph unicode="&#x2122;" horiz-adv-x="1562" d="M623 1419v-125h-215v-557h-142v557h-215v125h572zM1401 1419q16 -104 28.5 -267t28.5 -415h-143q-2 51 -4 109.5t-5 117t-7.5 116l-8.5 106.5q-23 -39 -49 -91l-52 -104l-49 -96q-24 -45 -36 -72h-100q-12 27 -36 72l-49 96l-54 104l-48 91q-4 -49 -8 -106.5t-7 -116 t-5 -117t-4 -109.5h-142q16 252 28.5 415t29.5 267h135l41 -84l53 -106l58 -117l59 -115l57 115l59 117l54 106l41 84h135z" />
<glyph unicode="&#xe000;" horiz-adv-x="1065" d="M0 1065h1065v-1065h-1065v1065z" />
<glyph unicode="&#xf001;" horiz-adv-x="1325" d="M584 1589q72 0 123 -9t73 -17l-26 -164q-23 8 -62 17t-94 9q-133 0 -186.5 -72.5t-53.5 -195.5v-92h410v-160h-410v-905h-190v1161q0 205 100.5 316.5t315.5 111.5zM1157 0h-190v1065h190v-1065zM1061 1257q-51 0 -87 34t-36 91t36 91t87 34t87 -33.5t36 -91.5 q0 -57 -36 -91t-87 -34z" />
<glyph unicode="&#xf002;" horiz-adv-x="1366" d="M584 1589q72 0 123 -9t73 -17l-26 -164q-23 8 -62 17t-94 9q-133 0 -186.5 -72.5t-53.5 -195.5v-92h410v-160h-410v-905h-190v1161q0 205 100.5 316.5t315.5 111.5zM1286 -20q-176 4 -249.5 75.5t-73.5 223.5v1277l190 33v-1280q0 -47 8 -77.5t26.5 -49t49.5 -28 t76 -15.5z" />
<glyph unicode="&#xfb01;" horiz-adv-x="1325" d="M584 1589q72 0 123 -9t73 -17l-26 -164q-23 8 -62 17t-94 9q-133 0 -186.5 -72.5t-53.5 -195.5v-92h410v-160h-410v-905h-190v1161q0 205 100.5 316.5t315.5 111.5zM1157 0h-190v1065h190v-1065zM1061 1257q-51 0 -87 34t-36 91t36 91t87 34t87 -33.5t36 -91.5 q0 -57 -36 -91t-87 -34z" />
<glyph unicode="&#xfb02;" horiz-adv-x="1366" d="M584 1589q72 0 123 -9t73 -17l-26 -164q-23 8 -62 17t-94 9q-133 0 -186.5 -72.5t-53.5 -195.5v-92h410v-160h-410v-905h-190v1161q0 205 100.5 316.5t315.5 111.5zM1286 -20q-176 4 -249.5 75.5t-73.5 223.5v1277l190 33v-1280q0 -47 8 -77.5t26.5 -49t49.5 -28 t76 -15.5z" />
<glyph unicode="&#xfb03;" horiz-adv-x="2123" d="M584 1589q84 0 144 -12t85 -23l-35 -163q-25 12 -69.5 23t-110.5 11q-133 0 -186.5 -72.5t-53.5 -195.5v-92h410v-160h-410v-905h-190v1161q0 205 100.5 316.5t315.5 111.5zM1383 1589q72 0 123 -9t73 -17l-26 -164q-23 8 -62 17t-94 9q-133 0 -186.5 -72.5t-53.5 -195.5 v-92h410v-160h-410v-905h-190v1161q0 205 100.5 316.5t315.5 111.5zM1956 0h-190v1065h190v-1065zM1860 1257q-51 0 -87 34t-36 91t36 91t87 34t87 -33.5t36 -91.5q0 -57 -36 -91t-87 -34z" />
<glyph unicode="&#xfb04;" horiz-adv-x="2164" d="M584 1589q84 0 144 -12t85 -23l-35 -163q-25 12 -69.5 23t-110.5 11q-133 0 -186.5 -72.5t-53.5 -195.5v-92h410v-160h-410v-905h-190v1161q0 205 100.5 316.5t315.5 111.5zM1383 1589q72 0 123 -9t73 -17l-26 -164q-23 8 -62 17t-94 9q-133 0 -186.5 -72.5t-53.5 -195.5 v-92h410v-160h-410v-905h-190v1161q0 205 100.5 316.5t315.5 111.5zM2085 -20q-176 4 -249.5 75.5t-73.5 223.5v1277l190 33v-1280q0 -47 8 -77.5t26.5 -49t49.5 -28t76 -15.5z" />
</font>
</defs>
</svg>
